A
B
C
D
E
F
G
H
I
J
K
L
M
N
O
P
Q
R
S
T
U
V
W
X
Y
Z
0-9
Gozumun.Nuru.2013.720p.DvdRip.Upscale.AC3-5.1-TTR.mkv

Genişletmek için Tıkla!
31-03-2014 00:18 , ByboomerangRIP Tarafından Yüklendi.
Kaynaklar: 2 / İndirilen: 0 / Boyut: 1.79 GB / Tamamlandı: 23
Torrenti İndir  Torrenti Şikayet Et Torrent Tanımı Tanıtım Videosu
IMDB Puanı: 6.5 6.5/10 Tür: Drama
Kategori: Türk Filmleri > DvD-Rip
http://www.imdb.com/title/tt2671988/



Filmin Özeti

Kahramanımız M. Genç yaşında tam bir sinema tutkunudur. Tüm hayatını film çekme idealine bağlamıştır ama göz retinasında yaşadığı ciddi bir rahatsızlık sonucu üst süte iki ameliyat geçirir. Gözlerini tamamen kaybetme korkusuyla tam 40 gün boyunca gözleri bandajlı, yüzükoyun yatmak zorunda kalır. M. bu sancılı süreçte korkularıyla yüzleşmeye başlar; dahası sinemayla kurduğu takıntılı aşkı da gözden geçirecektir. M.’nin kendi yaşadıklarını ti’ye alan tarzı, yaşadığı karanlığa karşı verdiği savaştaki en güçlü silahı olacaktır. Hakkı Kurtuluş ve Melik Saraçoğlu’nun senaryoya ve yönetmenliğe beraber imza attıkları son yapım olan film, sıra dışı bir konuya ve çekim planlarına sahip.











Genişlet PHP:

General
Unique ID 
242577433963375046820163043713700233335 (0xB67EB6E247D630EB9E9B3D7ACA068077)
Complete name C:\Users\boom\Desktop\Torrentler\Gozumun.Nuru.2013.720p.DvdRip.Upscale.AC3-5.1-TTR.mkv
Format 
Matroska
Format version 
Version 4 Version 2
File size 
1.79 GiB
Duration 
1h 14mn
Overall bit rate mode 
Variable
Overall bit rate 
3 449 Kbps
Movie name 
Gozumun Nuru 2013 720p TTR
Encoded date 
UTC 2014-03-30 22:59:39
Writing application 
mkvmerge v6.0.0 ('Coming Up For Air'built on Jan 20 2013 12:38:35
Writing library 
libebml v1.3.0 libmatroska v1.4.0
Video
ID 
1
Format 
AVC
Format
/Info Advanced Video Codec
Format profile 
High@L4.0
Format settings
CABAC Yes
Format settings
ReFrames 3 frames
Codec ID 
V_MPEG4/ISO/AVC
Duration 
1h 14mn
Bit rate mode 
Variable
Bit rate 
3 000 Kbps
Maximum bit rate 
25.0 Mbps
Width 
1 280 pixels
Height 
534 pixels
Display aspect ratio 
2.40:1
Frame rate mode 
Constant
Frame rate 
25.000 fps
Color space 
YUV
Chroma subsampling 
4:2:0
Bit depth 
8 bits
Scan type 
Progressive
Bits
/(Pixel*Frame) : 0.176
Stream size 
1.52 GiB (85%)
Writing library x264 core 129 r2245 bc13772
Encoding settings 
cabac=ref=deblock=1:0:analyse=0x3:0x113 me=hex subme=psy=psy_rd=1.00:0.00 mixed_ref=me_range=16 chroma_me=trellis=8x8dct=cqm=deadzone=21,11 fast_pskip=chroma_qp_offset=-threads=lookahead_threads=sliced_threads=nr=decimate=interlaced=bluray_compat=constrained_intra=bframes=b_pyramid=b_adapt=b_bias=direct=weightb=open_gop=weightp=keyint=250 keyint_min=25 scenecut=40 intra_refresh=rc_lookahead=40 rc=2pass mbtree=bitrate=3000 ratetol=1.0 qcomp=0.60 qpmin=qpmax=69 qpstep=cplxblur=20.0 qblur=0.5 vbv_maxrate=25000 vbv_bufsize=25000 nal_hrd=vbr ip_ratio=1.40 aq=1:1.00
Default : Yes
Forced 
No
Audio
ID 
2
Format 
AC-3
Format
/Info Audio Coding 3
Mode extension 
CM (complete main)
Format settingsEndianness Big
Codec ID 
A_AC3
Duration 
1h 14mn
Bit rate mode 
Constant
Bit rate 
448 Kbps
Channel count 
6 channels
Channel positions 
FrontL C RSideL RLFE
Sampling rate 
48.0 KHz
Bit depth 
16 bits
Compression mode 
Lossy
Stream size 
239 MiB (13%)
Language Turkish
Default : Yes
Forced 
No
Menu
00
:00:00.000 en:(01)00:00:00:000
00
:03:49.000 en:(02)00:03:49:000
00
:07:23.000 en:(03)00:07:23:000
00
:10:25.000 en:(04)00:10:25:000
00
:11:50.000 en:(05)00:11:50:000
00
:16:27.000 en:(06)00:16:27:000
00
:19:54.000 en:(07)00:19:54:000
00
:24:37.000 en:(08)00:24:37:000
00
:28:32.000 en:(09)00:28:32:000
00
:32:38.000 en:(10)00:32:38:000
00
:35:08.000 en:(11)00:35:08:000
00
:40:05.000 en:(12)00:40:05:000
00
:43:34.000 en:(13)00:43:34:000
00
:47:08.000 en:(14)00:47:08:000
00
:48:30.000 en:(15)00:48:30:000
00
:53:28.000 en:(16)00:53:28:000
00
:54:36.000 en:(17)00:54:36:000
00
:58:00.000 en:(18)00:58:00:000
00
:59:58.000 en:(19)00:59:58:000
01
:02:09.000 en:(20)01:02:09:000
01
:02:52.000 en:(21)01:02:52:000
01
:04:32.000 en:(22)01:04:32:000
01
:07:48.000 en:(23)01:07:48:000
01
:12:09.000 en:(24)01:12:09:000

Fatih.Harbiye.BL.29.DVBRip.XviD.OpeD.avi

Genişletmek için Tıkla!
30-03-2014 17:39 , ByboomerangRIP Tarafından Yüklendi.
Kaynaklar: 0 / İndirilen: 0 / Boyut: 1 GB / Tamamlandı: 4
Torrenti İndir  Torrenti Şikayet Et Torrent Tanımı
Tür: Drama
Kategori: Dizi > Yerli





Gozumun.Nuru.2013.Untouched.DVD9.iso

Genişletmek için Tıkla!
30-03-2014 16:10 , ApolloNet Tarafından Yüklendi.
Kaynaklar: 0 / İndirilen: 0 / Boyut: 7.86 GB / Tamamlandı: 2
Torrenti İndir  Torrenti Şikayet Et Torrent Tanımı Tanıtım Videosu
IMDB Puanı: 6.5 6.5/10
Kategori: V.I.P
http://www.imdb.com/title/tt2671988/



http://www.imdb.com/title/tt2671988/

Tür: Deama,Komedi,Aile

Yönetmen: Hakki Kurtulus / Melik Saracoglu

Oyuncular:
Melik Saracoglu / Bilgin Saracoglu / Ismail Saracoglu / Oyku Altuntas / Orhan Saracoglu / Hakki Kurtulus / Ahmet Saracoglu / Cuneyt Cebenoyan

Konusu:
Kahramanımız M. Genç yaşında tam bir sinema tutkunudur. Tüm hayatını film çekme idealine bağlamıştır ama göz retinasında yaşadığı ciddi bir rahatsızlık sonucu üst süte iki ameliyat geçirir. Gözlerini tamamen kaybetme korkusuyla tam 40 gün boyunca gözleri bandajlı, yüzükoyun yatmak zorunda kalır. M. bu sancılı süreçte korkularıyla yüzleşmeye başlar; dahası sinemayla kurduğu takıntılı aşkı da gözden geçirecektir. M.’nin kendi yaşadıklarını ti’ye alan tarzı, yaşadığı karanlığa karşı verdiği savaştaki en güçlü silahı olacaktır. Hakkı Kurtuluş ve Melik Saraçoğlu’nun senaryoya ve yönetmenliğe beraber imza attıkları son yapım olan film, sıra dışı bir konuya ve çekim planlarına sahip.

Ürün özellikleri
Format: DVD9

Disk Seçenekleri:
İnteraktif Menü - Sahne Seçenekleri - Dil ve Altyazı Seçenekleri - Özel Seçenekler

Diller: Türkçe 2.0 - Türkçe 5.1

Altyazı: Türkçe - İngilizce


Görüntü Tipi: PAL
Görüntü Formatı: 16:9 Widescreen
Süre: 01.18.00









Bugünün.Saraylısı.Bölüm.20. 720p.HDTV .x264.AC3.TTR.mkv

Genişletmek için Tıkla!
30-03-2014 05:59 , TrackerTurK Tarafından Yüklendi.
Kaynaklar: 0 / İndirilen: 0 / Boyut: 1.68 GB / Tamamlandı: 11
Torrenti İndir  Torrenti Şikayet Et Torrent Tanımı
Tür: Drama
Kategori: Dizi > HDTV Yerli
Anonim Yükleyici


General
Unique ID : 217821181965256334544629554043889933416 (0xA3DED56C80B53D45BF00EB7632385C68)
Complete name : D:\FILMLER\tv kaydi\Bugünün.Saraylısı.Bölüm.20. 720p.HDTV .x264.AC3.TTR.mkv
Format : Matroska
Format version : Version 4 / Version 2
File size : 1.68 GiB
Duration : 1h 40mn
Overall bit rate mode : Variable
Overall bit rate : 2 394 Kbps
Movie name : bs
Encoded date : UTC 2014-03-30 03:38:44
Writing application : mkvmerge v6.6.0 ('The Edge Of The In Between') built on Dec 1 2013 17:55:00
Writing library : libebml v1.3.0 + libmatroska v1.4.1
Cover : Cover

Video
ID : 1
Format : AVC
Format/Info : Advanced Video Codec
Format profile : High@L4.0
Format settings, CABAC : Yes
Format settings, ReFrames : 3 frames
Codec ID : V_MPEG4/ISO/AVC
Duration : 1h 40mn
Bit rate mode : Variable
Bit rate : 2 200 Kbps
Maximum bit rate : 25.0 Mbps
Width : 1 280 pixels
Height : 720 pixels
Display aspect ratio : 16:9
Frame rate mode : Constant
Frame rate : 25.000 fps
Color space : YUV
Chroma subsampling : 4:2:0
Bit depth : 8 bits
Scan type : Progressive
Bits/(Pixel*Frame) : 0.095
Stream size : 1.51 GiB (90%)
Writing library : x264 core 135 r2345 f0c1c53
Encoding settings : cabac=1 / ref=3 / deblock=1:0:0 / analyse=0x3:0x113 / me=hex / subme=7 / psy=1 / psy_rd=1.00:0.00 / mixed_ref=1 / me_range=16 / chroma_me=1 / trellis=1 / 8x8dct=1 / cqm=0 / deadzone=21,11 / fast_pskip=1 / chroma_qp_offset=-2 / threads=3 / lookahead_threads=1 / sliced_threads=0 / nr=0 / decimate=1 / interlaced=0 / bluray_compat=0 / constrained_intra=0 / bframes=3 / b_pyramid=0 / b_adapt=1 / b_bias=0 / direct=1 / weightb=1 / open_gop=0 / weightp=2 / keyint=250 / keyint_min=25 / scenecut=40 / intra_refresh=0 / rc_lookahead=40 / rc=2pass / mbtree=1 / bitrate=2200 / ratetol=1.0 / qcomp=0.60 / qpmin=0 / qpmax=69 / qpstep=4 / cplxblur=20.0 / qblur=0.5 / vbv_maxrate=25000 / vbv_bufsize=25000 / nal_hrd=vbr / ip_ratio=1.40 / aq=1:1.00
Default : Yes
Forced : No

Audio
ID : 2
Format : AC-3
Format/Info : Audio Coding 3
Mode extension : CM (complete main)
Format settings, Endianness : Big
Codec ID : A_AC3
Duration : 1h 40mn
Bit rate mode : Constant
Bit rate : 192 Kbps
Channel count : 2 channels
Channel positions : Front: L R
Sampling rate : 48.0 KHz
Bit depth : 16 bits
Compression mode : Lossy
Stream size : 138 MiB (8%)
Language : English
Default : Yes
Forced : No

Kedi.Ozledi.2013.DvD-9.iso

Genişletmek için Tıkla!
30-03-2014 03:18 , ApolloNet Tarafından Yüklendi.
Kaynaklar: 0 / İndirilen: 0 / Boyut: 6.26 GB / Tamamlandı: 2
Torrenti İndir  Torrenti Şikayet Et Torrent Tanımı Tanıtım Videosu
IMDB Puanı: 5.9 5.9/10 Tür: Komedi
Kategori: V.I.P
http://www.imdb.com/title/tt3421116/

7cUaXz0 Kedi Özledi 2013 ( DvD 5 ) Yerli Film   Tek Link

PtTXu5s Kedi Özledi 2013 ( DvD 5 ) Yerli Film   Tek Link

http://www.imdb.com/title/tt3421116/

Tür: Komedi

mdb Puan: 5.7

Vizyon Tarihi: 20 Aralk 2013 (Türkiye)

Süre: 99 dakika

Film, birbirlerini çok seven ancak ilikilerinde sorunlar yaayan bir çiftin, bir kedi araclyla ilikilerini onarmaya çalma sürecini anlatyor. Otuzlu yalarnda olan Kymet ve Kadir, üniversite bittikten sonra tanm ve o andan sonra da hiç ayrlmamtr. Ne var ki çevrelerindekiler için ‘örnek iliki’ timsali olan bu birliktelik, Kadir’in arkadalarnn snrlar zorlayan çapknlar nedeniyle sorunlarla karlamaya balar. Geldikleri son aama ise iki tarafn da aklna gelmeyecek türden karmaktr.

89mN3da Kedi Özledi 2013 ( DvD 5 ) Yerli Film   Tek Link

emOuBZu Kedi Özledi 2013 ( DvD 5 ) Yerli Film   Tek Link

Fzx9hDD Kedi Özledi 2013 ( DvD 5 ) Yerli Film   Tek Link

PtbCTDC Kedi Özledi 2013 ( DvD 5 ) Yerli Film   Tek Link

QARRSTG Kedi Özledi 2013 ( DvD 5 ) Yerli Film   Tek Link

Yozgat.Blues.2013.720p.DvdRip.Upscale.AC3-5.1-TTR.mkv

Genişletmek için Tıkla!
29-03-2014 23:12 , ByboomerangRIP Tarafından Yüklendi.
Kaynaklar: 3 / İndirilen: 0 / Boyut: 2.22 GB / Tamamlandı: 26
Torrenti İndir  Torrenti Şikayet Et Torrent Tanımı Tanıtım Videosu
IMDB Puanı: 7.1 7.1/10 Tür: Drama | Komedi
Kategori: Türk Filmleri > DvD-Rip
http://www.imdb.com/title/tt2388819/



Filmin Özeti

Yozgat, Yavuz ve Neşe'nin hikayesinin başladığı ya da bittiği yerdir... Aldıkları bir iş teklifi sonrasında Yozgat'a taşınan müzik öğretmeni ve şarkıcı Yavuz ve öğrencisi Neşe hayatlarının önemli bir dönüm noktasına adım atmak üzeredir. İcra ettikleri müzik türüyle bu yeni şehirde kimsenin ilgisini çekemeyen ikilinin çabalarına, buraya taşındıkları ilk günlerde tanıştıkları Sabri'nin yardımları da eklenir ancak sonuç yine olumsuzdur. Bu olumsuz sonuç beklenmedik gelişmeleri de beraberinde getirir...
Filmin yönetmen koltuğunda ilk uzun metraj çalışması Uzak İhtimal ile büyük beğeni kazanan ve İstanbul Film Festivali'nde Altın Lale ödülüne layık görülen Mahmut Fazıl Coşkun bulunuyor. Başrollerinde ise son dönemin başarılı isimlerinden Ercan Kesal, Ayça Damgacı ve Tansu Biçer yer alıyor.











Genişlet PHP:

General
Unique ID 
185195295055617852207102864209708636571 (0x8B5351019A9CAC25963B6E2E0F24D99B)
Complete name C:\Users\boom\Desktop\Torrentler\Yozgat.Blues.2013.720p.DvdRip.Upscale.AC3-5.1-TTR.mkv
Format 
Matroska
Format version 
Version 4 Version 2
File size 
2.22 GiB
Duration 
1h 32mn
Overall bit rate mode 
Variable
Overall bit rate 
3 449 Kbps
Movie name 
YOZGAT BLUES 720p TTR
Encoded date 
UTC 2014-03-29 21:34:18
Writing application 
mkvmerge v6.0.0 ('Coming Up For Air'built on Jan 20 2013 12:38:35
Writing library 
libebml v1.3.0 libmatroska v1.4.0
Video
ID 
1
Format 
AVC
Format
/Info Advanced Video Codec
Format profile 
High@L4.0
Format settings
CABAC Yes
Format settings
ReFrames 3 frames
Codec ID 
V_MPEG4/ISO/AVC
Duration 
1h 32mn
Bit rate mode 
Variable
Bit rate 
3 000 Kbps
Maximum bit rate 
25.0 Mbps
Width 
1 280 pixels
Height 
534 pixels
Display aspect ratio 
2.40:1
Frame rate mode 
Constant
Frame rate 
25.000 fps
Color space 
YUV
Chroma subsampling 
4:2:0
Bit depth 
8 bits
Scan type 
Progressive
Bits
/(Pixel*Frame) : 0.176
Stream size 
1.89 GiB (85%)
Writing library x264 core 129 r2245 bc13772
Encoding settings 
cabac=ref=deblock=1:0:analyse=0x3:0x113 me=hex subme=psy=psy_rd=1.00:0.00 mixed_ref=me_range=16 chroma_me=trellis=8x8dct=cqm=deadzone=21,11 fast_pskip=chroma_qp_offset=-threads=lookahead_threads=sliced_threads=nr=decimate=interlaced=bluray_compat=constrained_intra=bframes=b_pyramid=b_adapt=b_bias=direct=weightb=open_gop=weightp=keyint=250 keyint_min=25 scenecut=40 intra_refresh=rc_lookahead=40 rc=2pass mbtree=bitrate=3000 ratetol=1.0 qcomp=0.60 qpmin=qpmax=69 qpstep=cplxblur=20.0 qblur=0.5 vbv_maxrate=25000 vbv_bufsize=25000 nal_hrd=vbr ip_ratio=1.40 aq=1:1.00
Default : Yes
Forced 
No
Audio
ID 
2
Format 
AC-3
Format
/Info Audio Coding 3
Mode extension 
CM (complete main)
Format settingsEndianness Big
Codec ID 
A_AC3
Duration 
1h 32mn
Bit rate mode 
Constant
Bit rate 
448 Kbps
Channel count 
6 channels
Channel positions 
FrontL C RSideL RLFE
Sampling rate 
48.0 KHz
Bit depth 
16 bits
Compression mode 
Lossy
Stream size 
296 MiB (13%)
Language Turkish
Default : Yes
Forced 
No
Menu
00
:00:00.000 en:(01)00:00:00:000
00
:09:30.000 en:(02)00:09:30:000
00
:16:22.000 en:(03)00:16:22:000
00
:24:09.000 en:(04)00:24:09:000
00
:33:12.000 en:(05)00:33:12:000
00
:40:17.000 en:(06)00:40:17:000
00
:49:08.000 en:(07)00:49:08:000
00
:57:26.000 en:(08)00:57:26:000
01
:04:37.000 en:(09)01:04:37:000
01
:12:33.000 en:(10)01:12:33:000
01
:19:35.000 en:(11)01:19:35:000
01
:29:05.000 en:(12)01:29:05:000


Ustura.Donuyor.2013.BRRip.TRDUB.XviD-GANi

Genişletmek için Tıkla!
29-03-2014 19:21 , TrackerTurK Tarafından Yüklendi.
Kaynaklar: 0 / İndirilen: 0 / Boyut: 696.55 MB / Tamamlandı: 22
Torrenti İndir  Torrenti Şikayet Et Torrent Tanımı Tanıtım Videosu
IMDB Puanı: 5.7 5.7/10 Tür: Aksiyon | Gerilim | Komedi
Kategori: Film > BD-Rip Türkçe
Anonim Yükleyicihttp://www.imdb.com/title/tt2002718/

Yapım yılı: 2013
Tür: Aksiyon - Komedi - Gerilim
Yönetmen : Robert Rodriguez
Senaryo : Kyle Ward (screenplay), Robert Rodriguez (story)
Oyuncular : Danny Trejo, Alexa Vega, Mel Gibson, Mel Gibson, Michelle Rodriguez, Jessica Alba, Charlie Sheen ve Sofía Vergara
Amerika Birleşik Devletleri hükümeti tarafından görevlendirilen eski ajan Machete Cortez, yeni görevi için Meksika'ya gitmek zorundadır. Ölümcül bir silahla gezegeni yok etmek gibi son derece tehlikeli planlar kurmakta olan bir silah tüccarını bulmak ve etkisiz hale getirmek zorunda olan Machete'i bekleyen görev oldukça zorludur...
2010 yapımı Machete'nin devam filmi niteliğindeki yapımda tehlikeli anti-kahraman Machete Cortez'in maceralarını izlemeye devam ediyoruz...
Filmin yönetmen koltuğunda Sin City ve El mariachi gibi önemli filmlere imza atan Roberto Rodriguez; oyuncu kadrosunda ise Mel Gibson, Jessica Alba, Charlie Sheen ve Sofía Vergara gibi yıldız isimler bulunuyor.





Genişlet PHP:

Format AVI at 902 Kbps
Length 
697 MiB for 1H 48mn

Video 
#0 : MPEG-4 Visual at 764 Kbps
Aspect 640 x 352 at 23.976 fps

Audio 
#0 : MPEG Audio at 128 Kbps
Infos 2 channels48.0 KHz






Makina.Kafa.28.04.2014.Web-DL.mp4

Genişletmek için Tıkla!
29-03-2014 17:09 , ApolloNet Tarafından Yüklendi.
Kaynaklar: 0 / İndirilen: 0 / Boyut: 934.39 MB / Tamamlandı: 5
Torrenti İndir  Torrenti Şikayet Et Torrent Tanımı
Tür: Komedi
Kategori: Dizi > Web-DL



Defne Samyeli, Sefa Doğanay, Ferman Toprak ile Aşk Oyunu filminden Suzan Kardeş, Kemal Uçar ve Ebru Öztürk Makina Kafa'ya konuk oldu ||| Okan Bayülgen Makina


Formula1.Malezya.Siralama.Turlari.2014.HDTV.1080i-MuraTurk.ts

Genişletmek için Tıkla!
29-03-2014 15:24 , MuraTurK Tarafından Yüklendi.
Kaynaklar: 2 / İndirilen: 0 / Boyut: 1.92 GB / Tamamlandı: 4
Torrenti İndir  Torrenti Şikayet Et Torrent Tanımı
Kategori: V.I.P

Dondurucu.2014.BRRip.TRDUB.XviD-HDM

Genişletmek için Tıkla!
29-03-2014 13:21 , TrackerTurK Tarafından Yüklendi.
Kaynaklar: 0 / İndirilen: 0 / Boyut: 852.41 MB / Tamamlandı: 21
Torrenti İndir  Torrenti Şikayet Et Torrent Tanımı Tanıtım Videosu
IMDB Puanı: 5.2 5.2/10 Tür: Aksiyon | Gerilim
Kategori: Film > BD-Rip Türkçe
Anonim Yükleyicihttp://www.imdb.com/title/tt2325002/

Adı: Freezer
IMDb Puanı: 5.2/10 (1,067 oy ile)
IMDb Top250: -/250
Yönetmen: Mikael Salomon
Yazarlar: Tom Doganoglu, Shane Weisfeld
Görüntü Yönetmeni: John Dyer
Ülke: USA
Tür: Aksiyon, Gerilim
Süre: 91 dk.
Yapımcılar: Rhonda Baker, David Buelow, Lisa Byrne
Müzik: David C. Williams
Oyuncular: Dylan McDermott, Peter Facinelli, Yuliya Snigir
Özet: New Yorklu bir tamirci olan Robert Saunders (Dylan McDermott), doğumgününde bilinçsiz bir şekilde kilitli kalır ve uyandığında kendisini bir restaurantın dondurucusunda bulur. Ama niçin orada olduğu




Genişlet PHP:

Format AVI at 1 450 Kbps
Length 
852 MiB for 1h 22mn 10s 884ms

Video 
#0 : MPEG-4 Visual at 1 249 Kbps
Aspect 720 x 304 (2.368at 23.976 fps

Audio 
#0 : AC-3 at 192 Kbps HDM AUDIO
Infos 2 channels48.0 KHz

Kurtlar.Vadisi.Pusu.B220.1080p.HDTV.TTR.mkv

Genişletmek için Tıkla!
28-03-2014 23:09 , ByboomerangRIP Tarafından Yüklendi.
Kaynaklar: 0 / İndirilen: 0 / Boyut: 2.89 GB / Tamamlandı: 9
Torrenti İndir  Torrenti Şikayet Et Torrent Tanımı
Tür: Suç
Kategori: Dizi > HDTV Yerli















Genişlet PHP:

General
Unique ID 
250337497063561214514115251227299514575 (0xBC553F88B58C550EB14241CAC8A588CF)
Complete name C:\Users\boom\Desktop\Torrentler\Kurtlar.Vadisi.Pusu.B220.1080p.HDTV.TTR.mkv
Format 
Matroska
Format version 
Version 4 Version 2
File size 
2.89 GiB
Duration 
1h 37mn
Overall bit rate mode 
Variable
Overall bit rate 
4 259 Kbps
Movie name 
Kurtlar Vadisi Pusu B 220 HDTV 1080p TTR
Encoded date 
UTC 2014-03-28 21:38:18
Writing application 
mkvmerge v6.0.0 ('Coming Up For Air'built on Jan 20 2013 12:38:35
Writing library 
libebml v1.3.0 libmatroska v1.4.0
Cover 
Cover
Video
ID 
1
Format 
AVC
Format
/Info Advanced Video Codec
Format profile 
High@L4.0
Format settings
CABAC Yes
Format settings
ReFrames 3 frames
Codec ID 
V_MPEG4/ISO/AVC
Duration 
1h 37mn
Bit rate mode 
Variable
Bit rate 
4 000 Kbps
Maximum bit rate 
25.0 Mbps
Width 
1 920 pixels
Height 
1 080 pixels
Display aspect ratio 
16:9
Frame rate mode 
Constant
Frame rate 
25.000 fps
Color space 
YUV
Chroma subsampling 
4:2:0
Bit depth 
8 bits
Scan type 
Progressive
Bits
/(Pixel*Frame) : 0.077
Stream size 
2.66 GiB (92%)
Writing library x264 core 129 r2245 bc13772
Encoding settings 
cabac=ref=deblock=1:0:analyse=0x3:0x113 me=hex subme=psy=psy_rd=1.00:0.00 mixed_ref=me_range=16 chroma_me=trellis=8x8dct=cqm=deadzone=21,11 fast_pskip=chroma_qp_offset=-threads=lookahead_threads=sliced_threads=nr=decimate=interlaced=bluray_compat=constrained_intra=bframes=b_pyramid=b_adapt=b_bias=direct=weightb=open_gop=weightp=keyint=250 keyint_min=25 scenecut=40 intra_refresh=rc_lookahead=40 rc=2pass mbtree=bitrate=4000 ratetol=1.0 qcomp=0.60 qpmin=qpmax=69 qpstep=cplxblur=20.0 qblur=0.5 vbv_maxrate=25000 vbv_bufsize=25000 nal_hrd=vbr ip_ratio=1.40 aq=1:1.00
Default : Yes
Forced 
No
Audio
ID 
2
Format 
AC-3
Format
/Info Audio Coding 3
Mode extension 
CM (complete main)
Format settingsEndianness Big
Codec ID 
A_AC3
Duration 
1h 37mn
Bit rate mode 
Constant
Bit rate 
256 Kbps
Channel count 
2 channels
Channel positions 
FrontL R
Sampling rate 
48.0 KHz
Bit depth 
16 bits
Compression mode 
Lossy
Stream size 
178 MiB (6%)
Language English
Default : Yes
Forced 
No

Tekno HD (17.03.2014) DVBRip HDTV 720p x264 AC3 TTR

Genişletmek için Tıkla!
28-03-2014 19:25 , TrackerTurK Tarafından Yüklendi.
Kaynaklar: 1 / İndirilen: 0 / Boyut: 456.75 MB / Tamamlandı: 11
Torrenti İndir  Torrenti Şikayet Et Torrent Tanımı
Tür: Aile | Belgesel
Kategori: Dizi > HDTV Yerli
Anonim Yükleyici



2008 yılında kurulan TeknoHD ziyaretçilerine HD dünyasıyla ilgili en son haberleri aktarıyor.

HD TV'ler, HD ev eğlence sistemleri, HD kanallar, HD uydu platformları, Digiturk Plus, D-Smart HD, Teledünya HD bizim esas ilgi alanlarımızı oluşturuyor.

Genişlet PHP:


Release Details
General
Unique ID 
172250744407267091255969417814899890434 (0x81964962879E32CEBB9BA6A172871902)
Complete name C:\Users\gurbu_000\Desktop\Tekno HD (17.03.2014DVBRip HDTV 720p x264 AC3 TURG\Tekno HD (17.03.2014DVBRip HDTV 720p x264 AC3 TURG.mkv
Format 
Matroska
Format version 
Version 2
File size 
457 MiB
Duration 
29mn 33s
Overall bit rate 
2 160 Kbps
Encoded date 
UTC 2014-03-17 10:58:10
Writing application 
mkvmerge v6.5.0 ('Isn't she lovely') built on Oct 20 2013 12:50:05
Writing library : libebml v1.3.0 + libmatroska v1.4.1
Video
ID : 1
Format : AVC
Format/Info : Advanced Video Codec
Format profile : High@L3.1
Format settings, CABAC : Yes
Format settings, ReFrames : 4 frames
Codec ID : V_MPEG4/ISO/AVC
Duration : 29mn 33s
Bit rate : 1 733 Kbps
Width : 1 280 pixels
Height : 720 pixels
Display aspect ratio : 16:9
Frame rate mode : Constant
Frame rate : 25.000 fps
Color space : YUV
Chroma subsampling : 4:2:0
Bit depth : 8 bits
Scan type : Progressive
Bits/(Pixel*Frame) : 0.075
Stream size : 366 MiB (80%)
Writing library : x264 core 138 r2358 9e941d1
Encoding settings : cabac=1 / ref=3 / deblock=1:0:0 / analyse=0x3:0x113 / me=hex / subme=7 / psy=1 / psy_rd=1.00:0.00 / mixed_ref=1 / me_range=16 / chroma_me=1 / trellis=1 / 8x8dct=1 / cqm=0 / deadzone=21,11 / fast_pskip=1 / chroma_qp_offset=-2 / threads=6 / lookahead_threads=1 / sliced_threads=0 / nr=0 / decimate=1 / interlaced=0 / bluray_compat=0 / constrained_intra=0 / bframes=3 / b_pyramid=2 / b_adapt=1 / b_bias=0 / direct=1 / weightb=1 / open_gop=0 / weightp=2 / keyint=250 / keyint_min=25 / scenecut=40 / intra_refresh=0 / rc_lookahead=40 / rc=crf / mbtree=1 / crf=23.0 / qcomp=0.60 / qpmin=0 / qpmax=69 / qpstep=4 / ip_ratio=1.40 / aq=1:1.00
Language : English
Default : Yes
Forced : No
Audio
ID : 2
Format : AC-3
Format/Info : Audio Coding 3
Mode extension : CM (complete main)
Format settings, Endianness : Big
Codec ID : A_AC3
Duration : 29mn 33s
Bit rate mode : Constant
Bit rate : 384 Kbps
Channel count : 6 channels
Channel positions : Front: L C R, Side: L R, LFE
Sampling rate : 48.0 KHz
Bit depth : 16 bits
Compression mode : Lossy
Stream size : 81.2 MiB (18%)
Language : Turkish
Default : Yes
Forced : No

True Detective S01 720p HDTV x264

Genişletmek için Tıkla!
28-03-2014 18:53 , gurbuzbjk Tarafından Yüklendi.
Kaynaklar: 0 / İndirilen: 0 / Boyut: 12.45 GB / Tamamlandı: 1
Torrenti İndir  Torrenti Şikayet Et Torrent Tanımı Tanıtım Videosu
IMDB Puanı: 9.5 9.5/10
Kategori: Dizi > BoXSet
http://www.imdb.com/title/tt2356777/

True Detective S01 720p HDTV x264 BoxSet

Özet: Matthew McConaughey ve Woody Harrelson'ın başrollerini paylaşacağı True Detective, 8 bölüm halinde yayınlanacak olan bir polisiye drama.

17 yıl önce 1995'te yaşanan bazı olayların ardından yakalanamayan bir seri katilin dosyasının günümüzde tekrar açılmasından harekete geçen dedektifler Rust Cohle ve Martin Hart'ın çevresinde gelişen olayları ekrana getirecek olan True Detective, The Killing'in yazarı Nic Pizzolatto tarafından kaleme alınacak. Dizinin yönetmenliğini ise Cary Fukunaga üstleniyor.

True Detective, 8 bölümlük ilk sezonunun ardından yayına devam ederse, her yeni sezonunda yeni karakterler ve dolayısıyla yeni bir hikayeyi ekrana getirecek.

Genişlet PHP:

SiZE..........: 12.44 GB
CONTAiNER
.....: MKV
RUNTiME
.......: ~55 Min
ViDEO
.CODEC...: x264
BiTRATE
.......: ~4000 Kb/s
ASPECT
.RATiO..: 1.778
RESOLUTiON
....: 1280x720
FRAME
.RATE....: 23.976
AUDiO
.CODEC...: DD5.1 384 kbps 

Türkiye Kupası Yarı Final 1.Maç Galatasaray-Bursaspor TTR

Genişletmek için Tıkla!
28-03-2014 18:00 , mertiytemur Tarafından Yüklendi.
Kaynaklar: 0 / İndirilen: 0 / Boyut: 2.03 GB / Tamamlandı: 0
Torrenti İndir  Torrenti Şikayet Et Torrent Tanımı
Kategori: V.I.P

Türkiye Kupası Yarı Final 1.Maç Galatasaray-Bursaspor TTR
Buyu.2004.720p.DvdRip.Upscale.AC3-5.1-TTR.mkv

Genişletmek için Tıkla!
28-03-2014 11:17 , ByboomerangRIP Tarafından Yüklendi.
Kaynaklar: 1 / İndirilen: 0 / Boyut: 2.29 GB / Tamamlandı: 21
Torrenti İndir  Torrenti Şikayet Et Torrent Tanımı Tanıtım Videosu
IMDB Puanı: 2.7 2.7/10 Tür: Gerilim | Korku
Kategori: Türk Filmleri > DvD-Rip
http://www.imdb.com/title/tt0424873/

DVD KALİTESİZ OLDUĞUNDAN BU RİPTEN İSTEDİĞİM VERİMİ ALAMADIĞIMI AÇIKÇA BELİRTEYİM. İNDİRİNCE BANA KIZMAYIN :P



Filmin Özeti

Anadolu'nun ücra köşesindeki bir köye kazı yapmak için giden bir grup arkeolog 700 yıldır süregelen bir laneti yeniden canlandırmak üzeredir. Kız çocuklarının uğursuzluk getirdiğine inanan köy halkı yediyüz yıl önce tüm kız çocuklarını öldürmüş ve toprağın altına gömmüştür. İçlerinden sadece biri kızını öldüremez ve bu kız da yaşlı büyücünün lanetli büyüsünden kurtulamaz. Arkeologlar Kral Sultan Salih'e ait olan bir el yazmasını ararlarken farkında olmadan bu antik büyünün yeniden canlanmasına sebep olacaklar, yüzyıllardır süregelen bir laneti üzerlerinde toplayacaklardır.
Ülke sinemamızın korku-gerilim türünde verdiği ender örneklerden biri olan film her ne kadar vasatın altında bir görünüm sergilemiş olsa da ilgi çekici denemelerden biri olarak kabul edilebilir.



















Genişlet PHP:

General
Unique ID 
191699698942038237733184942238074979466 (0x903804E09BB22E4894CC49E5CDE0C48A)
Complete name C:\Users\boom\Desktop\Torrentler\Buyu.2004.720p.DvdRip.Upscale.AC3-5.1-TTR.mkv
Format 
Matroska
Format version 
Version 4 Version 2
File size 
2.29 GiB
Duration 
1h 35mn
Overall bit rate mode 
Variable
Overall bit rate 
3 449 Kbps
Movie name 
BUYU 2004 DVD 720p TTR
Encoded date 
UTC 2014-03-28 02:29:18
Writing application 
mkvmerge v6.0.0 ('Coming Up For Air'built on Jan 20 2013 12:38:35
Writing library 
libebml v1.3.0 libmatroska v1.4.0
Video
ID 
1
Format 
AVC
Format
/Info Advanced Video Codec
Format profile 
High@L4.0
Format settings
CABAC Yes
Format settings
ReFrames 3 frames
Codec ID 
V_MPEG4/ISO/AVC
Duration 
1h 35mn
Bit rate mode 
Variable
Bit rate 
3 000 Kbps
Maximum bit rate 
25.0 Mbps
Width 
1 280 pixels
Height 
692 pixels
Display aspect ratio 
1.85:1
Frame rate mode 
Constant
Frame rate 
25.000 fps
Color space 
YUV
Chroma subsampling 
4:2:0
Bit depth 
8 bits
Scan type 
Progressive
Bits
/(Pixel*Frame) : 0.135
Stream size 
1.95 GiB (85%)
Writing library x264 core 129 r2245 bc13772
Encoding settings 
cabac=ref=deblock=1:0:analyse=0x3:0x113 me=hex subme=psy=psy_rd=1.00:0.00 mixed_ref=me_range=16 chroma_me=trellis=8x8dct=cqm=deadzone=21,11 fast_pskip=chroma_qp_offset=-threads=lookahead_threads=sliced_threads=nr=decimate=interlaced=bluray_compat=constrained_intra=bframes=b_pyramid=b_adapt=b_bias=direct=weightb=open_gop=weightp=keyint=250 keyint_min=25 scenecut=40 intra_refresh=rc_lookahead=40 rc=2pass mbtree=bitrate=3000 ratetol=1.0 qcomp=0.60 qpmin=qpmax=69 qpstep=cplxblur=20.0 qblur=0.5 vbv_maxrate=25000 vbv_bufsize=25000 nal_hrd=vbr ip_ratio=1.40 aq=1:1.00
Default : Yes
Forced 
No
Audio
ID 
2
Format 
AC-3
Format
/Info Audio Coding 3
Mode extension 
CM (complete main)
Format settingsEndianness Big
Codec ID 
A_AC3
Duration 
1h 35mn
Bit rate mode 
Constant
Bit rate 
448 Kbps
Channel count 
6 channels
Channel positions 
FrontL C RSideL RLFE
Sampling rate 
48.0 KHz
Bit depth 
16 bits
Compression mode 
Lossy
Stream size 
305 MiB (13%)
Language Turkish
Default : Yes
Forced 
No
Menu
00
:00:00.000 en:(01)00:00:00:000
00
:08:34.000 en:(02)00:08:34:000
00
:15:19.000 en:(03)00:15:19:000
00
:25:25.000 en:(04)00:25:25:000
00
:32:15.000 en:(05)00:32:15:000
00
:41:39.000 en:(06)00:41:39:000
00
:48:27.000 en:(07)00:48:27:000
00
:58:03.000 en:(08)00:58:03:000
01
:06:37.000 en:(09)01:06:37:000
01
:11:46.000 en:(10)01:11:46:000
01
:20:24.000 en:(11)01:20:24:000
01
:29:49.000 en:(12)01:29:49:000


Kurtlar Vadisi Pusu 220 Bolum HDTV 720P.AC3. X264 TTR.mkv

Genişletmek için Tıkla!
28-03-2014 09:12 , TrackerTurK Tarafından Yüklendi.
Kaynaklar: 1 / İndirilen: 0 / Boyut: 2.03 GB / Tamamlandı: 22
Torrenti İndir  Torrenti Şikayet Et Torrent Tanımı
Kategori: Dizi > HDTV Yerli
Anonim Yükleyici





Genişlet PHP:

General
Unique ID 
232233242493533795482133022430305411941 (0xAEB67EDE557119E29563C50313AB6365)
Complete name D:\FILMLER\tv kaydi\Kurtlar Vadisi Pusu 220 Bolum HDTV 720P.AC3X264 TTR.mkv
Format 
Matroska
Format version 
Version 4 Version 2
File size 
2.03 GiB
Duration 
1h 37mn
Overall bit rate mode 
Variable
Overall bit rate 
2 994 Kbps
Movie name 
Kurtlar Vadisi Pusu 220 Bolum HDTV 1080I X264 TTR
Encoded date 
UTC 2014-03-28 03:43:14
Writing application 
mkvmerge v6.6.0 ('The Edge Of The In Between'built on Dec 1 2013 17:55:00
Writing library 
libebml v1.3.0 libmatroska v1.4.1
Cover 
Cover

Video
ID 
1
Format 
AVC
Format
/Info Advanced Video Codec
Format profile 
High@L4.0
Format settings
CABAC Yes
Format settings
ReFrames 3 frames
Codec ID 
V_MPEG4/ISO/AVC
Duration 
1h 37mn
Bit rate mode 
Variable
Bit rate 
2 800 Kbps
Maximum bit rate 
25.0 Mbps
Width 
1 280 pixels
Height 
720 pixels
Display aspect ratio 
16:9
Frame rate mode 
Constant
Frame rate 
25.000 fps
Color space 
YUV
Chroma subsampling 
4:2:0
Bit depth 
8 bits
Scan type 
Progressive
Bits
/(Pixel*Frame) : 0.122
Stream size 
1.86 GiB (92%)
Writing library x264 core 135 r2345 f0c1c53
Encoding settings 
cabac=ref=deblock=1:0:analyse=0x3:0x113 me=hex subme=psy=psy_rd=1.00:0.00 mixed_ref=me_range=16 chroma_me=trellis=8x8dct=cqm=deadzone=21,11 fast_pskip=chroma_qp_offset=-threads=lookahead_threads=sliced_threads=nr=decimate=interlaced=bluray_compat=constrained_intra=bframes=b_pyramid=b_adapt=b_bias=direct=weightb=open_gop=weightp=keyint=250 keyint_min=25 scenecut=40 intra_refresh=rc_lookahead=40 rc=2pass mbtree=bitrate=2800 ratetol=1.0 qcomp=0.60 qpmin=qpmax=69 qpstep=cplxblur=20.0 qblur=0.5 vbv_maxrate=25000 vbv_bufsize=25000 nal_hrd=vbr ip_ratio=1.40 aq=1:1.00
Default : Yes
Forced 
No

Audio
ID 
2
Format 
AC-3
Format
/Info Audio Coding 3
Mode extension 
CM (complete main)
Format settingsEndianness Big
Codec ID 
A_AC3
Duration 
1h 37mn
Bit rate mode 
Constant
Bit rate 
192 Kbps
Channel count 
2 channels
Channel positions 
FrontL R
Sampling rate 
48.0 KHz
Bit depth 
16 bits
Compression mode 
Lossy
Stream size 
133 MiB (6%)
Language Turkish
Default : Yes
Forced 
No

Benim Dunyam 2013 DVDRip.avi

Genişletmek için Tıkla!
28-03-2014 01:55 , ApolloNet Tarafından Yüklendi.
Kaynaklar: 0 / İndirilen: 0 / Boyut: 702.57 MB / Tamamlandı: 31
Torrenti İndir  Torrenti Şikayet Et Torrent Tanımı Tanıtım Videosu
IMDB Puanı: 7.0 7.0/10 Tür: Drama | Romantik
Kategori: Türk Filmleri > DvD-Rip
http://www.imdb.com/title/tt3159564/

Benim Dunyam 2013 DVDRip XviD



8 yaşına kadar hayatla ilgili hiçbir şey bilmeden yaşayan Ela ile aynı durumdaki ablasını trajik bir biçimde yitirdikten sonra hayatını engellilere adayan Mahir Hoca'nın yollarının kesişmesiyle siyahtan beyaza giden bu yolculuğunda sadece bir kelimeye yer yoktur: İmkansız. Film, Mahir Hoca'nın karanlığın içindeki Ela'nın elinden tutarak onu üniversite sıralarına kadar taşıyışını ve Ela'nın umut ve vefa hikayesini anlatıyor.
Benim Dünyam; sadece karanlığı görebilenlere, karanlığın anlamını baştan yazdıranların hikayesidir.





Su.ve.Ates.2013.DvD-9.iso

Genişletmek için Tıkla!
28-03-2014 01:40 , ApolloNet Tarafından Yüklendi.
Kaynaklar: 0 / İndirilen: 0 / Boyut: 7.26 GB / Tamamlandı: 2
Torrenti İndir  Torrenti Şikayet Et Torrent Tanımı Tanıtım Videosu
IMDB Puanı: 7.0 7.0/10 Tür: Drama | Romantik
Kategori: V.I.P
http://www.imdb.com/title/tt3142958/

Su ve Ates 2013 - DVD-9




Dil eğitimi için Londra'ya giden ve eğitimi bittikten sonra da orada yaşamaya devam eden Yağmur, Kemal'le tesadüf eseri bir uçakta karşılaşır ve tesadüfler peşlerini bırakmaz. Yağmur, çok az tanıdığı ve gizemli bir yönü olduğuna inandığ Kemal'e aşık olmuştur ve aralarında bir ilişki başlar.

Hayatına giren diğer adamlardan farklı olan Kemal'in ise Yağmur'dan sakladığı çok büyük sırlar vardır. Londra'da rüya gibi günler geçiren çiftin, bugünleri kısa sürede geride kalacaktır. Asıl adı Haşmet olan Kemal, büyük bir aşiret hesaplaşması ve kan davasının içerisindedir. İki aşiretin, kanı karşılıklı olarak durdurması da tamemen Haşmet'e bağlıdır. Yağmur'u da içine sürükleyecek karanlık olaylar ise kapıdadır.

Yapımı Avşar Film ve DNZ Film ortaklığında gerçekleştirilen projenin başrollerini Yasemin Allen ve Özcan Deniz paylaşırken, yönetmen koltuğunda yine Özcan Deniz oturuyor.

Bu resim yeniden boyutlandırılmıştır. Gerçek boyutta görmek için resme tıklayın. Orjinal Resim Boyutu: 1024 x 576


Bu resim yeniden boyutlandırılmıştır. Gerçek boyutta görmek için resme tıklayın. Orjinal Resim Boyutu: 1024 x 576


Bu resim yeniden boyutlandırılmıştır. Gerçek boyutta görmek için resme tıklayın. Orjinal Resim Boyutu: 1024 x 576

Siyah Giyen Adamlar 3 Men In Black 3 2012 720p BluRay x264 DUAL.mkv

Genişletmek için Tıkla!
28-03-2014 00:25 , ApolloNet Tarafından Yüklendi.
Kaynaklar: 1 / İndirilen: 0 / Boyut: 4.37 GB / Tamamlandı: 11
Torrenti İndir  Torrenti Şikayet Et Torrent Tanımı
Kategori: Film > BD-Rip Türkçe

Resim


Siyah Giyen Adamlar 3 | Men In Black 3 | 2012 | 720p | BluRay | x264 | DUAL


Ajan J, Ajan K'yı bulmak için zamanda geriye gittiği, uzun bir yolculuğa çıkacaktır. Zira dünyanın sonunu getirebilecek bir seri olayın fişeği ateşlenmiştir. Ajan J, zamana karşı şimdi her zamankinden daha hızlı hareket etmelidir…
Oyuncu Will Smith ve yönetmen Barry Sonnenfeld Siyah Giyen Adamlar efsanesini yeniden canlandırmak için üçüncü kez bir araya geliyorlar. Gezegenimizi bir kez daha düşmanlardan kurtaracak çok gizli devlet örgütlerinin dünyasına iniyoruz. Ayrıca serinin üçüncü filmi bu kez 3 boyut teknolojisinin olanaklarından sonuna kadar faydalanıyor.
Başrollerde Will Smith'e eşlik eden isimler ise Tommy Lee Jones, Josh Brolin ve güzel yıldız Emma Thompson…





Kurtlar.Vadisi.Pusu.220.Bolum.1080i HDTV MPA H.264.ts

Genişletmek için Tıkla!
27-03-2014 23:11 , TrackerTurK Tarafından Yüklendi.
Kaynaklar: 0 / İndirilen: 0 / Boyut: 7.21 GB / Tamamlandı: 4
Torrenti İndir  Torrenti Şikayet Et Torrent Tanımı Tanıtım Videosu
IMDB Puanı: 6.9 6.9/10
Kategori: V.I.P
Anonim Yükleyicihttp://www.imdb.com/title/tt1018501/

Muhtesem Yuzyil BL 129 720p HDTV AC3 x.264 - TTR.mkv

Genişletmek için Tıkla!
27-03-2014 22:14 , ByboomerangRIP Tarafından Yüklendi.
Kaynaklar: 1 / İndirilen: 0 / Boyut: 1.98 GB / Tamamlandı: 16
Torrenti İndir  Torrenti Şikayet Et Torrent Tanımı
Tür: Drama | Tarih
Kategori: Dizi > HDTV Yerli





Genişlet PHP:

General
Unique ID 
239210215787275372464794174181717259943 (0xB3F63635D3345FB4A6EB7EBDB7CB36A7)
Complete name C:\Users\boom\Desktop\Torrentler\Muhtesem Yuzyil BL 129 720p HDTV AC3 x.264 TTR.mkv
Format 
Matroska
Format version 
Version 2
File size 
1.98 GiB
Duration 
1h 53mn
Overall bit rate 
2 502 Kbps
Encoded date 
UTC 2014-03-27 20:38:47
Writing application 
mkvmerge v6.8.0 ('Theme for Great Cities'64bit built on Mar 2 2014 21:34:26
Writing library 
libebml v1.3.0 libmatroska v1.4.1
Video
ID 
1
Format 
AVC
Format
/Info Advanced Video Codec
Format profile 
High@L4.1
Format settings
CABAC Yes
Format settings
ReFrames 4 frames
Codec ID 
V_MPEG4/ISO/AVC
Duration 
1h 53mn
Bit rate 
2 308 Kbps
Width 
1 280 pixels
Height 
720 pixels
Display aspect ratio 
16:9
Frame rate mode 
Constant
Frame rate 
25.000 fps
Color space 
YUV
Chroma subsampling 
4:2:0
Bit depth 
8 bits
Scan type 
Progressive
Bits
/(Pixel*Frame) : 0.100
Stream size 
1.78 GiB (90%)
Writing library x264 core 138 r2358 9e941d1
Encoding settings 
cabac=ref=deblock=1:0:analyse=0x3:0x113 me=hex subme=psy=psy_rd=1.00:0.00 mixed_ref=me_range=16 chroma_me=trellis=8x8dct=cqm=deadzone=21,11 fast_pskip=chroma_qp_offset=-threads=12 lookahead_threads=sliced_threads=nr=decimate=interlaced=bluray_compat=constrained_intra=bframes=b_pyramid=b_adapt=b_bias=direct=weightb=open_gop=weightp=keyint=250 keyint_min=25 scenecut=40 intra_refresh=rc_lookahead=40 rc=2pass mbtree=bitrate=2308 ratetol=1.0 qcomp=0.60 qpmin=qpmax=69 qpstep=cplxblur=20.0 qblur=0.5 vbv_maxrate=62500 vbv_bufsize=78125 nal_hrd=none ip_ratio=1.40 aq=1:1.00
Default : Yes
Forced 
No
Audio
ID 
2
Format 
AC-3
Format
/Info Audio Coding 3
Mode extension 
CM (complete main)
Format settingsEndianness Big
Codec ID 
A_AC3
Duration 
1h 53mn
Bit rate mode 
Constant
Bit rate 
192 Kbps
Channel count 
2 channels
Channel positions 
FrontL R
Sampling rate 
48.0 KHz
Bit depth 
16 bits
Compression mode 
Lossy
Stream size 
155 MiB (8%)
Default : 
Yes
Forced 
No

Muhtesem Yuzyil BL 129 1080i HDTV MPA H.264 - TTR.ts

Genişletmek için Tıkla!
27-03-2014 22:14 , ByboomerangRIP Tarafından Yüklendi.
Kaynaklar: 0 / İndirilen: 0 / Boyut: 3.2 GB / Tamamlandı: 4
Torrenti İndir  Torrenti Şikayet Et Torrent Tanımı
Tür: Drama | Tarih
Kategori: V.I.P

Saldiri.Timi.2012.BRRip.TRDUB.XviD

Genişletmek için Tıkla!
27-03-2014 21:17 , TrackerTurK Tarafından Yüklendi.
Kaynaklar: 1 / İndirilen: 0 / Boyut: 697.72 MB / Tamamlandı: 18
Torrenti İndir  Torrenti Şikayet Et Torrent Tanımı Tanıtım Videosu
IMDB Puanı: 3.3 3.3/10 Tür: Aksiyon | Tarih
Kategori: Film > BD-Rip Türkçe
Anonim Yükleyicihttp://www.imdb.com/title/tt2103997/

Adı: Battle Force
IMDb Puanı: 3.3/10 (787 oy ile)
IMDb Top250: -/250
Yönetmen: Scott Martin
Yazarlar: Scott Martin
Görüntü Yönetmeni: Mark Atkins
Ülke: USA
Tür: Aksiyon, Savaş
Süre: 102 dk.
Yapımcılar: Braden Bowen, Jeffrey Giles
Müzik: Marianthe Bezzerides
Oyuncular: Scott Martin, Clint Glenn Hummel
İkinci Dünya Savaşında, 1. Özel Hizmet Kuvvet birimi, gizli bir kurtarma görevi üstlenirler, ancak müttefiklerin Sicilya işgali için çok önemli bir mesajı vardır, zamana karşı bir yarış; daha fazla mermi ve ateş. Köşeli bir kayaya sıkışıp kalmışlardır ancak, sadece bir seçenekleri vardır: "Hayatta kalmak"





Yozgat.Blues.2013.DvD-5.iso

Genişletmek için Tıkla!
27-03-2014 20:46 , ApolloNet Tarafından Yüklendi.
Kaynaklar: 1 / İndirilen: 0 / Boyut: 3.92 GB / Tamamlandı: 4
Torrenti İndir  Torrenti Şikayet Et Torrent Tanımı
Tür: Drama
Kategori: V.I.P

Yozgat Blues 2013 - DvD5






Yozgat, Yavuz ve Neşe'nin hikayesinin başladığı ya da bittiği yerdir... Aldıkları bir iş teklifi sonrasında Yozgat'a taşınan müzik öğretmeni ve şarkıcı Yavuz ve öğrencisi Neşe hayatlarının önemli bir dönüm noktasına adım atmak üzeredir.

İcra ettikleri müzik türüyle bu yeni şehirde kimsenin ilgisini çekemeyen ikilinin çabalarına, buraya taşındıkları ilk günlerde tanıştıkları Sabri'nin yardımları da eklenir ancak sonuç yine olumsuzdur. Bu olumsuz sonuç beklenmedik gelişmeleri de beraberinde getirir.







Senin.Hikayen.2013.720p.DvdRip.Upscale.AC3-5.1-TTR.mkv

Genişletmek için Tıkla!
27-03-2014 19:10 , ByboomerangRIP Tarafından Yüklendi.
Kaynaklar: 4 / İndirilen: 0 / Boyut: 2.77 GB / Tamamlandı: 51
Torrenti İndir  Torrenti Şikayet Et Torrent Tanımı Tanıtım Videosu
IMDB Puanı: 6.6 6.6/10 Tür: Drama | Komedi
Kategori: Türk Filmleri > DvD-Rip
http://www.imdb.com/title/tt3397026/



Filmin Özeti

Hakan ve Esra evliliklerinin yedinci yılını tamamlayan, birbirlerini halen tutkuyla seven, 30'lu yaşlarında bir çifttir. Esra özel bir şirkette iyi bir kariyer sahibidir ve hatta yurt dışından iş teklifi almıştır. Müzik stüdyosu olan Hakan ise aldığı reklam, film projeleri ile ailesini geçindirmeye çalışan, sevgi dolu bir eştir. Hakan'ın annesi Meral'da ise kanser belirtileri baş göstermeye başlar, tedaviyi kabul eden Meral henüz torun sevmeden hayata veda etmemeye kararlıdır. Ama Esra ile Hakan da çocuk konusunda terredütler yaşayan bir çifttir. Esra bir yandan kariyerini düşünür, bir yandan çocuk sahibi olmak kafasında soru işaretiyken, yaşam ikisine de güzel bir sürpriz yapar... Sıcak bir aile hikayesini izleyiciyle buluşturan filmin yönetmen koltuğunda en son Labirent filmiyle kamera arkasına geçen Kaybedenler Kulübü'nün yönetmeni Tolga Örnek bulunuyor. Senaryosunu da Örnek'in yazdığı ve TAFF Pictures yapımcılığında gerçekleşen filmin başrollerini ise Timuçin Esen ve Selma Ergeç paylaşıyor.



















Genişlet PHP:

General
Unique ID 
210037482450086340330730678087806571511 (0x9E03BF68931E381091C70BBD564753F7)
Complete name C:\Users\boom\Desktop\Torrentler\Senin.Hikayen.2013.720p.DvdRip.Upscale.AC3-5.1-TTR.mkv
Format 
Matroska
Format version 
Version 4 Version 2
File size 
2.77 GiB
Duration 
1h 40mn
Overall bit rate mode 
Variable
Overall bit rate 
3 949 Kbps
Movie name 
SENIN HIKAYEN 720p TTR
Encoded date 
UTC 2014-03-27 16:46:14
Writing application 
mkvmerge v6.0.0 ('Coming Up For Air'built on Jan 20 2013 12:38:35
Writing library 
libebml v1.3.0 libmatroska v1.4.0
Video
ID 
1
Format 
AVC
Format
/Info Advanced Video Codec
Format profile 
High@L4.0
Format settings
CABAC Yes
Format settings
ReFrames 3 frames
Codec ID 
V_MPEG4/ISO/AVC
Duration 
1h 40mn
Bit rate mode 
Variable
Bit rate 
3 500 Kbps
Maximum bit rate 
25.0 Mbps
Width 
1 280 pixels
Height 
720 pixels
Display aspect ratio 
16:9
Frame rate mode 
Constant
Frame rate 
25.000 fps
Color space 
YUV
Chroma subsampling 
4:2:0
Bit depth 
8 bits
Scan type 
Progressive
Bits
/(Pixel*Frame) : 0.152
Stream size 
2.40 GiB (87%)
Writing library x264 core 129 r2245 bc13772
Encoding settings 
cabac=ref=deblock=1:0:analyse=0x3:0x113 me=hex subme=psy=psy_rd=1.00:0.00 mixed_ref=me_range=16 chroma_me=trellis=8x8dct=cqm=deadzone=21,11 fast_pskip=chroma_qp_offset=-threads=lookahead_threads=sliced_threads=nr=decimate=interlaced=bluray_compat=constrained_intra=bframes=b_pyramid=b_adapt=b_bias=direct=weightb=open_gop=weightp=keyint=250 keyint_min=25 scenecut=40 intra_refresh=rc_lookahead=40 rc=2pass mbtree=bitrate=3500 ratetol=1.0 qcomp=0.60 qpmin=qpmax=69 qpstep=cplxblur=20.0 qblur=0.5 vbv_maxrate=25000 vbv_bufsize=25000 nal_hrd=vbr ip_ratio=1.40 aq=1:1.00
Default : Yes
Forced 
No
Audio
ID 
2
Format 
AC-3
Format
/Info Audio Coding 3
Mode extension 
CM (complete main)
Format settingsEndianness Big
Codec ID 
A_AC3
Duration 
1h 40mn
Bit rate mode 
Constant
Bit rate 
448 Kbps
Channel count 
6 channels
Channel positions 
FrontL C RSideL RLFE
Sampling rate 
48.0 KHz
Bit depth 
16 bits
Compression mode 
Lossy
Stream size 
322 MiB (11%)
Language Turkish
Default : Yes
Forced 
No
Menu
00
:00:00.000 en:(01)00:00:00:000
00
:07:29.000 en:(02)00:07:29:000
00
:15:55.000 en:(03)00:15:55:000
00
:25:46.000 en:(04)00:25:46:000
00
:34:24.000 en:(05)00:34:24:000
00
:40:31.000 en:(06)00:40:31:000
00
:49:58.000 en:(07)00:49:58:000
00
:54:26.000 en:(08)00:54:26:000
01
:00:52.000 en:(09)01:00:52:000
01
:09:21.000 en:(10)01:09:21:000
01
:18:51.000 en:(11)01:18:51:000
01
:32:21.000 en:(12)01:32:21:000


Büyü.2004.DvD5.iso

Genişletmek için Tıkla!
27-03-2014 17:29 , ApolloNet Tarafından Yüklendi.
Kaynaklar: 1 / İndirilen: 0 / Boyut: 4.35 GB / Tamamlandı: 5
Torrenti İndir  Torrenti Şikayet Et Torrent Tanımı Tanıtım Videosu
IMDB Puanı: 2.7 2.7/10 Tür: Gerilim | Korku
Kategori: V.I.P
http://www.imdb.com/title/tt0424873/

[Resim: posv.jpg]


Film Hakkında;

Vizyon tarihi: 17 Aralık 2004
Yönetmen: Orhan Oğuz
Oyuncular: İpek Tuzcuoğlu, Ece Uslu, Okan Yalabık, Özgü Namal
uzun metrajlı film Türkiye . Tür: Korku , Gerilim
Süre: 92 dk Yapım yılı: 2004


Büyü Galasında Yangın!

14 Aralık 2004 Salı - Haberler - Gündemdeki Filmler

Dolmabahçe'deki sinema yangınında çok sayıda yaralı var

Büyü filminin bu akşam Dolmabahçe G-Mall sinemasında düzenlenen galası sırasında yangın çıktı.

Kısa sürede bütün alışveriş merkezinin dumanla dolduğu yangının, dekor olarak yerleştirilen mumların devrilmesi sonucu straforların ve perdelerin alev almasıyla çıktığı açıklandı.

Toplam 6 salonda yapılan galada çıkan yangında, 148 kişinin dumandan etkilenerek yaralandığı ve ambulanslarla çevredeki hastanelere kaldırıldığı bildirildi. Pek çok ünlünün, gazetecinin ve sinema yazarının katıldığı galada 1 yaralının durumunun ciddi olduğu da eklendi.

Filmin çekimleri sırasında yaşanan bazı talihsizlikler, filmin lanetli olduğu dedikodusunun yayılmasına sebep olmuştu. Şanssızlıklar filmin galasında da peşini bırakmadı.

[B]Konusu;

Lanetli olduğuna inanılan bir köye araştırma yapmak için bir grup arkeolog gelir. Lanetin sebebi bundan tam yedi yüz yıl öncesine dayanmaktadır. Kız çocuklarının uğursuzluğuna inanan köy halkı hepsini öldürür. Sadece bir baba kızına kıyamaz ve yaşlı bir kadın ona büyü yapar.
Ayşe ve ekibi Artuklu Kralı Sultan Salih'e ait bir kitabı aramaya başlarlar. Zeynep, Ayşe'nin çok yakın bir arkadaşıdır ama duygularını engelleyememiş ve yıllardan beri arkadaşının kocası Tarık'a bir aşk beslemiştir. Zeynep'in bu aşkı lanetin yıllar sonra tekrarlanmasına sebep olur. Büyücüye giden Zeynep, Tarık'ı elde etmek için yardım ister. Ama büyü yenilenir ve kötü cinler ekibe korku dolu günler yaşatmaya başlayacaktır.
Oyuncuların bile çekimler sırasında ürkmüş olduğu söylenen filmin afişinde, Kuran'dan bazı ayetler de kullanılmış.












Kizil Elma 11 Bolum HDTV.720p.x264.AC3.TTR.mkv

Genişletmek için Tıkla!
27-03-2014 09:24 , TrackerTurK Tarafından Yüklendi.
Kaynaklar: 1 / İndirilen: 0 / Boyut: 1.74 GB / Tamamlandı: 16
Torrenti İndir  Torrenti Şikayet Et Torrent Tanımı
Kategori: Dizi > HDTV Yerli
Anonim Yükleyici


Genişlet PHP:

General
Unique ID 
201703293886774255474061771100997744274 (0x97BEA43006794A7DBADA6F9ADAE2F692)
Complete name D:\FILMLER\tv kaydi\Kizil Elma 11 Bolum HDTV.720p.x264.AC3.TTR.mkv
Format 
Matroska
Format version 
Version 4 Version 2
File size 
1.74 GiB
Duration 
1h 32mn
Overall bit rate mode 
Variable
Overall bit rate 
2 693 Kbps
Movie name 
Kizil Elma 11 Bolum HDTV 1080i x264
Encoded date 
UTC 2014-03-27 02:17:23
Writing application 
mkvmerge v6.6.0 ('The Edge Of The In Between'built on Dec 1 2013 17:55:00
Writing library 
libebml v1.3.0 libmatroska v1.4.1

Video
ID 
1
Format 
AVC
Format
/Info Advanced Video Codec
Format profile 
High@L4.0
Format settings
CABAC Yes
Format settings
ReFrames 3 frames
Codec ID 
V_MPEG4/ISO/AVC
Duration 
1h 32mn
Bit rate mode 
Variable
Bit rate 
2 500 Kbps
Maximum bit rate 
25.0 Mbps
Width 
1 280 pixels
Height 
720 pixels
Display aspect ratio 
16:9
Frame rate mode 
Constant
Frame rate 
25.000 fps
Color space 
YUV
Chroma subsampling 
4:2:0
Bit depth 
8 bits
Scan type 
Progressive
Bits
/(Pixel*Frame) : 0.109
Stream size 
1.58 GiB (91%)
Writing library x264 core 135 r2345 f0c1c53
Encoding settings 
cabac=ref=deblock=1:0:analyse=0x3:0x113 me=hex subme=psy=psy_rd=1.00:0.00 mixed_ref=me_range=16 chroma_me=trellis=8x8dct=cqm=deadzone=21,11 fast_pskip=chroma_qp_offset=-threads=lookahead_threads=sliced_threads=nr=decimate=interlaced=bluray_compat=constrained_intra=bframes=b_pyramid=b_adapt=b_bias=direct=weightb=open_gop=weightp=keyint=250 keyint_min=25 scenecut=40 intra_refresh=rc_lookahead=40 rc=2pass mbtree=bitrate=2500 ratetol=1.0 qcomp=0.60 qpmin=qpmax=69 qpstep=cplxblur=20.0 qblur=0.5 vbv_maxrate=25000 vbv_bufsize=25000 nal_hrd=vbr ip_ratio=1.40 aq=1:1.00
Default : Yes
Forced 
No

Audio
ID 
2
Format 
AC-3
Format
/Info Audio Coding 3
Mode extension 
CM (complete main)
Format settingsEndianness Big
Codec ID 
A_AC3
Duration 
1h 32mn
Bit rate mode 
Constant
Bit rate 
192 Kbps
Channel count 
2 channels
Channel positions 
FrontL R
Sampling rate 
48.0 KHz
Bit depth 
16 bits
Compression mode 
Lossy
Stream size 
127 MiB (7%)
Language Turkish
Default : Yes
Forced 
No

Need.for.Speed.2014.TS.MD.German.XviD.avi

Genişletmek için Tıkla!
27-03-2014 00:04 , ApolloNet Tarafından Yüklendi.
Kaynaklar: 2 / İndirilen: 0 / Boyut: 1.39 GB / Tamamlandı: 13
Torrenti İndir  Torrenti Şikayet Et Torrent Tanımı
Tür: Aksiyon | Macera
Kategori: Film > CAM/TS/SCR vs.

Need For Speed (2014)

  • Kinostart: 20.03.2014
  • Format: XviD
  • Video: TeleSync
  • Audio: Mic-Dubbed
Inhaltsangabe

Der Mechaniker Tobey Marshall hat Schwierigkeiten, seine Autowerkstatt über Wasser zu halten und beschließt deshalb, sich mit dem ehemaligen NASCAR-Fahrer Dino Brewster zusammen zu tun. Als Tobey kurz davor steht, einen Wagen an Julia Bonet zu verkaufen, um so die Werkstatt zu retten, hängt ihm Dino eine Straftat an, die er nicht begangen hat – woraufhin er für zwei Jahre ins Gefängnis muss. Nach seiner Entlassung ist Tobey auf Rache aus! Er beschließt, Dino im größten Underground-Rennen der Welt zu besiegen: dem De Leon. Doch das Rennen findet am anderen Ende der USA statt. Um rechtzeitig an der Startlinie zu sein, drückt Tobey schon vorher aufs Gaspedal – die Polizei immer dicht hinter ihm. Und zu allem Überfluss hat Dino ein Kopfgeld in Höhe von sechs Millionen Dollar auf Tobeys Auto ausgesetzt...



General
Need.for.Speed.2014.TS.MD.German.XviD.avi
Format : AVI
Format/Info : Audio Video Interleave
File size : 1.39 GiB
Duration : 2h 1mn
Overall bit rate mode : Variable
Overall bit rate : 1 634 Kbps
Writing application : VirtualDubMod 1.5.10.2 (build 2540/release)
Writing library : VirtualDubMod build 2540/release

Video
ID : 0
Format : MPEG-4 Visual
Format profile : Advanced Simple@L5
Format settings, BVOP : 2
Format settings, QPel : No
Format settings, GMC : No warppoints
Format settings, Matrix : Default (H.263)
Muxing mode : Packed bitstream
Codec ID : XVID
Codec ID/Hint : XviD
Duration : 2h 1mn
Bit rate : 1 495 Kbps
Width : 720 pixels
Height : 310 pixels
Display aspect ratio : 2.35:1
Frame rate : 25.000 fps
Color space : YUV
Chroma subsampling : 4:2:0
Bit depth : 8 bits
Scan type : Progressive
Compression mode : Lossy
Bits/(Pixel*Frame) : 0.268
Stream size : 1.27 GiB (92%)
Writing library : XviD 64

Audio
ID : 1
Format : MPEG Audio
Format version : Version 1
Format profile : Layer 3
Mode : Joint stereo
Mode extension : MS Stereo
Codec ID : 55
Codec ID/Hint : MP3
Duration : 2h 1mn
Bit rate mode : Variable
Bit rate : 126 Kbps
Channel(s) : 2 channels
Sampling rate : 48.0 KHz
Compression mode : Lossy
Stream size : 110 MiB (8%)
Alignment : Aligned on interleaves
Interleave, duration : 24 ms (0.60 video frame)
Interleave, preload duration : 435 ms


IDM.UltraEdit.v21.00.0.1033.German.Incl.Keymaker.rar

Genişletmek için Tıkla!
26-03-2014 23:37 , ApolloNet Tarafından Yüklendi.
Kaynaklar: 0 / İndirilen: 0 / Boyut: 26.98 MB / Tamamlandı: 5
Torrenti İndir  Torrenti Şikayet Et Torrent Tanımı
Tür: Bilimkurgu
Kategori: Uygulama > PC

IDM.UltraEdit.v21.00.0.1033.German.Incl.Keymaker.rar





Highspeed-DownloadNutze die volle Bandbreite deiner Internetverbindung und lade mit Fullspeed herunter.
Senin.Hikayen.2013.DvD9.By.ApolloNet.TTR.iso

Genişletmek için Tıkla!
26-03-2014 22:59 , ApolloNet Tarafından Yüklendi.
Kaynaklar: 0 / İndirilen: 0 / Boyut: 6.17 GB / Tamamlandı: 2
Torrenti İndir  Torrenti Şikayet Et Torrent Tanımı Tanıtım Videosu
IMDB Puanı: 6.6 6.6/10 Tür: Drama
Kategori: V.I.P
http://www.imdb.com/title/tt3397026/

Senin Hikayen 2013 ( DvD-9 ) Yerli Film - Tek Link

Senin Hikayen 2013 ( DvD-9 ) Yerli Film - Tek Link

http://www.imdb.com/title/tt3397026/

Tür: Dram

İmdb Puanı: 7.2

Vizyon Tarihi: 27 Aralık 2013 (Türkiye)

Süre: 93 dakika

Bir Bebek Bütün Hayatları Nasıl Değiştirir?

Ailesine bağlı, eğlenceli biri olan Hakan (Timuçin Esen) ile daha gerçekçi, kuralcı ve özgür bir kadın olan Esra (Selma Ergeç); 30lu yaşlarının ortalarında, kariyerlerine odaklanmış evli bir çifttir. Birbiriyle gayet iyi anlaşan bu çiftin 7 yıldır devam eden evliliği bir dönüm noktasındadır; çocuk sahibi olma kararı.

Karar aşamasında devreye bir de "babaanne" olmayı kafasına fena halde koymuş olan, Hakanın annesi Meral (Nevra Serezli) girer. Sakin, sevgi dolu ve mantıklı bir baba olan Orhanın (Sait Genay) tüm itirazlarına rağmen, çok sempatik ama baskın bir karakter olan Meralin tatlı müdahaleleriyle durum, daha da karmaşık ve komik bir hal alır.

Senin Hikayen 2013 ( DvD-9 ) Yerli Film - Tek Link

Senin Hikayen 2013 ( DvD-9 ) Yerli Film - Tek Link

Senin Hikayen 2013 ( DvD-9 ) Yerli Film - Tek Link

Senin Hikayen 2013 ( DvD-9 ) Yerli Film - Tek Link

Karadayi Bolum 64 1080p HDTV-RIP TTR.mkv

Genişletmek için Tıkla!
26-03-2014 07:20 , ByboomerangRIP Tarafından Yüklendi.
Kaynaklar: 0 / İndirilen: 0 / Boyut: 3.27 GB / Tamamlandı: 12
Torrenti İndir  Torrenti Şikayet Et Torrent Tanımı
Tür: Drama
Kategori: Dizi > HDTV Yerli

















Genişlet PHP:

General
Unique ID 
225654016758112896441712858953650605500 (0xA9C361FED332FF738C712104EE910DBC)
Complete name C:\Users\boom\Desktop\Torrentler\Karadayi Bolum 64 1080p HDTV-RIP TTR.mkv
Format 
Matroska
Format version 
Version 4 Version 2
File size 
3.27 GiB
Duration 
1h 50mn
Overall bit rate mode 
Variable
Overall bit rate 
4 259 Kbps
Movie name 
Karadayi 64 Bolum HDTV 1080i h2649-TTR
Encoded date 
UTC 2014-03-26 00:32:25
Writing application 
mkvmerge v6.0.0 ('Coming Up For Air'built on Jan 20 2013 12:38:35
Writing library 
libebml v1.3.0 libmatroska v1.4.0
Cover 
Cover
Video
ID 
1
Format 
AVC
Format
/Info Advanced Video Codec
Format profile 
High@L4.0
Format settings
CABAC Yes
Format settings
ReFrames 3 frames
Codec ID 
V_MPEG4/ISO/AVC
Duration 
1h 50mn
Bit rate mode 
Variable
Bit rate 
4 000 Kbps
Maximum bit rate 
25.0 Mbps
Width 
1 920 pixels
Height 
1 080 pixels
Display aspect ratio 
16:9
Frame rate mode 
Constant
Frame rate 
25.000 fps
Color space 
YUV
Chroma subsampling 
4:2:0
Bit depth 
8 bits
Scan type 
Progressive
Bits
/(Pixel*Frame) : 0.077
Stream size 
3.01 GiB (92%)
Writing library x264 core 129 r2245 bc13772
Encoding settings 
cabac=ref=deblock=1:0:analyse=0x3:0x113 me=hex subme=psy=psy_rd=1.00:0.00 mixed_ref=me_range=16 chroma_me=trellis=8x8dct=cqm=deadzone=21,11 fast_pskip=chroma_qp_offset=-threads=lookahead_threads=sliced_threads=nr=decimate=interlaced=bluray_compat=constrained_intra=bframes=b_pyramid=b_adapt=b_bias=direct=weightb=open_gop=weightp=keyint=250 keyint_min=25 scenecut=40 intra_refresh=rc_lookahead=40 rc=2pass mbtree=bitrate=4000 ratetol=1.0 qcomp=0.60 qpmin=qpmax=69 qpstep=cplxblur=20.0 qblur=0.5 vbv_maxrate=25000 vbv_bufsize=25000 nal_hrd=vbr ip_ratio=1.40 aq=1:1.00
Default : Yes
Forced 
No
Audio
ID 
2
Format 
AC-3
Format
/Info Audio Coding 3
Mode extension 
CM (complete main)
Format settingsEndianness Big
Codec ID 
A_AC3
Duration 
1h 50mn
Bit rate mode 
Constant
Bit rate 
256 Kbps
Channel count 
2 channels
Channel positions 
FrontL R
Sampling rate 
48.0 KHz
Bit depth 
16 bits
Compression mode 
Lossy
Stream size 
201 MiB (6%)
Language English
Default : Yes
Forced 
No

Seksenler Bolum 100.720P X264 AC3 HDTV-Rip TTR.mkv

Genişletmek için Tıkla!
26-03-2014 05:24 , TrackerTurK Tarafından Yüklendi.
Kaynaklar: 1 / İndirilen: 0 / Boyut: 2 GB / Tamamlandı: 12
Torrenti İndir  Torrenti Şikayet Et Torrent Tanımı
Kategori: Dizi > HDTV Yerli
Anonim Yükleyici


Genişlet PHP:

General
Unique ID 
180188736062787207324262481013339591968 (0x878F16970ED4267B92B504CC49541520)
Complete name D:\FILMLER\tv kaydi\Seksenler Bolum 100.720P X264 AC3 HDTV-Rip TTR.mkv
Format 
Matroska
Format version 
Version 4 Version 2
File size 
2.00 GiB
Duration 
1h 44mn
Overall bit rate mode 
Variable
Overall bit rate 
2 753 Kbps
Movie name 
s100
Encoded date 
UTC 2014-03-26 04:10:44
Writing application 
mkvmerge v6.6.0 ('The Edge Of The In Between'built on Dec 1 2013 17:55:00
Writing library 
libebml v1.3.0 libmatroska v1.4.1
Video
ID 
1
Format 
AVC
Format
/Info Advanced Video Codec
Format profile 
High@L4.0
Format settings
CABAC Yes
Format settings
ReFrames 3 frames
Codec ID 
V_MPEG4/ISO/AVC
Duration 
1h 44mn
Bit rate mode 
Variable
Bit rate 
2 560 Kbps
Maximum bit rate 
25.0 Mbps
Width 
1 280 pixels
Height 
720 pixels
Display aspect ratio 
16:9
Frame rate mode 
Constant
Frame rate 
25.000 fps
Color space 
YUV
Chroma subsampling 
4:2:0
Bit depth 
8 bits
Scan type 
Progressive
Bits
/(Pixel*Frame) : 0.111
Stream size 
1.82 GiB (91%)
Writing library x264 core 135 r2345 f0c1c53
Encoding settings 
cabac=ref=deblock=1:0:analyse=0x3:0x113 me=hex subme=psy=psy_rd=1.00:0.00 mixed_ref=me_range=16 chroma_me=trellis=8x8dct=cqm=deadzone=21,11 fast_pskip=chroma_qp_offset=-threads=lookahead_threads=sliced_threads=nr=decimate=interlaced=bluray_compat=constrained_intra=bframes=b_pyramid=b_adapt=b_bias=direct=weightb=open_gop=weightp=keyint=250 keyint_min=25 scenecut=40 intra_refresh=rc_lookahead=40 rc=2pass mbtree=bitrate=2560 ratetol=1.0 qcomp=0.60 qpmin=qpmax=69 qpstep=cplxblur=20.0 qblur=0.5 vbv_maxrate=25000 vbv_bufsize=25000 nal_hrd=vbr ip_ratio=1.40 aq=1:1.00
Default : Yes
Forced 
No
Audio
ID 
2
Format 
AC-3
Format
/Info Audio Coding 3
Mode extension 
CM (complete main)
Format settingsEndianness Big
Codec ID 
A_AC3
Duration 
1h 44mn
Bit rate mode 
Constant
Bit rate 
192 Kbps
Channel count 
2 channels
Channel positions 
FrontL R
Sampling rate 
48.0 KHz
Bit depth 
16 bits
Compression mode 
Lossy
Stream size 
143 MiB (7%)
Language Turkish
Default : Yes
Forced 
No

Hobbit.Smaugun.Corak.Topraklari.2013.BRRip.TRDUB.XviD-GANi

Genişletmek için Tıkla!
25-03-2014 23:44 , TrackerTurK Tarafından Yüklendi.
Kaynaklar: 2 / İndirilen: 0 / Boyut: 1.38 GB / Tamamlandı: 25
Torrenti İndir  Torrenti Şikayet Et Torrent Tanımı Tanıtım Videosu
IMDB Puanı: 8.1 8.1/10 Tür: Aksiyon | Fantastik | Macera
Kategori: Film > BD-Rip Türkçe
Anonim Yükleyicihttp://www.imdb.com/title/tt1170358/

Adı: The Hobbit: The Desolation of Smaug
IMDb Puanı: 8.1/10 (239,285 oy ile)
IMDb Top250: 219/250
Yönetmen: Peter Jackson
Yazarlar: Fran Walsh, Philippa Boyens, Peter Jackson, Guillermo del Toro, J.R.R. Tolkien
Görüntü Yönetmeni: Andrew Lesnie
Ülke: USA, New Zealand
Tür: Macera, Fantastik
Süre: 161 dk.
Yapımcılar: Carolyn Blackwood, Philippa Boyens, Carolynne Cunningham, Matthew Dravitzki, Toby Emmerich
Müzik: Howard Shore
Oyuncular: Ian McKellen, Martin Freeman, Richard Armitage, Ken Stott, Graham McTavish
Beyond darkness... beyond desolation... lies the greatest danger of all.
Özet: Yanlarında Bilbo Baggins ve büyücü Gri Gandalf ile beraber Cüceler, vatanları Erebor'u Ejderha Smaug'dan geri almak için olan zorlu yolculuklarına devam ederler. Bu arada Bilbo Baggins gizemli bir yüzüğün tesiri altındadır. Serinin ilk filmine nazaran oyuncu kadrosu iyice zenginleşen bu filmde maceraya doyacaksınız...



PesPese.2010.720p.DvdRip.Upscale.TTR.mkv

Genişletmek için Tıkla!
25-03-2014 19:51 , ByboomerangRIP Tarafından Yüklendi.
Kaynaklar: 3 / İndirilen: 1 / Boyut: 1.85 GB / Tamamlandı: 37
Torrenti İndir  Torrenti Şikayet Et Torrent Tanımı Tanıtım Videosu
IMDB Puanı: 5.9 5.9/10 Tür: Drama | Romantik
Kategori: Türk Filmleri > DvD-Rip
http://www.imdb.com/title/tt1673654/



Filmin Özeti

Pelin (Azra Akın), Londra’da düğün fotoğrafçılığı yapmaktadır. Son derece özgür bir ruhu olan Pelin, sorumluluk almakta ve bağlılık göstermekte sorun yaşamaktadır. Hayatı boyunca canını sıkan ve hoşuna gitmeyen her durumdan kaçmayı seçmiştir. Eski bir arkadaşının düğününün fotoğraflarını çekmek için İstanbul’ a gelir...Kaan (Okan Yalabık), İstanbul’da yaşayan, evlenmek üzere olan genç bir adamdır. Fazlasıyla kafasının içinde yaşayan Kaan, hayatın doğal akışı içinde saklı olan duygu ve anlamları kaçırmaktadır.Pelin ve Kaan, haberleri olmadan birbirlerinin hayatlarını etkileyeceklerdir.















Genişlet PHP:

General
Unique ID 
217148955527894527945728056658899322445 (0xA35D5E1A022DF5EEBA475D9D4B91464D)
Complete name C:\Users\boom\Desktop\Torrentler\PesPese.2010.720p.DvdRip.Upscale.TTR.mkv
Format 
Matroska
Format version 
Version 4 Version 2
File size 
1.85 GiB
Duration 
1h 23mn
Overall bit rate mode 
Variable
Overall bit rate 
3 194 Kbps
Movie name 
PES PESE 2010 TTR_
Encoded date 
UTC 2014-03-25 17:13:17
Writing application 
mkvmerge v6.0.0 ('Coming Up For Air'built on Jan 20 2013 12:38:35
Writing library 
libebml v1.3.0 libmatroska v1.4.0
Video
ID 
1
Format 
AVC
Format
/Info Advanced Video Codec
Format profile 
High@L4.0
Format settings
CABAC Yes
Format settings
ReFrames 3 frames
Codec ID 
V_MPEG4/ISO/AVC
Duration 
1h 23mn
Bit rate mode 
Variable
Bit rate 
3 000 Kbps
Maximum bit rate 
25.0 Mbps
Width 
1 280 pixels
Height 
720 pixels
Display aspect ratio 
16:9
Frame rate mode 
Constant
Frame rate 
25.000 fps
Color space 
YUV
Chroma subsampling 
4:2:0
Bit depth 
8 bits
Scan type 
Progressive
Bits
/(Pixel*Frame) : 0.130
Stream size 
1.70 GiB (92%)
Writing library x264 core 129 r2245 bc13772
Encoding settings 
cabac=ref=deblock=1:0:analyse=0x3:0x113 me=hex subme=psy=psy_rd=1.00:0.00 mixed_ref=me_range=16 chroma_me=trellis=8x8dct=cqm=deadzone=21,11 fast_pskip=chroma_qp_offset=-threads=lookahead_threads=sliced_threads=nr=decimate=interlaced=bluray_compat=constrained_intra=bframes=b_pyramid=b_adapt=b_bias=direct=weightb=open_gop=weightp=keyint=250 keyint_min=25 scenecut=40 intra_refresh=rc_lookahead=40 rc=2pass mbtree=bitrate=3000 ratetol=1.0 qcomp=0.60 qpmin=qpmax=69 qpstep=cplxblur=20.0 qblur=0.5 vbv_maxrate=25000 vbv_bufsize=25000 nal_hrd=vbr ip_ratio=1.40 aq=1:1.00
Default : Yes
Forced 
No
Audio
ID 
2
Format 
AC-3
Format
/Info Audio Coding 3
Mode extension 
CM (complete main)
Format settingsEndianness Big
Codec ID 
A_AC3
Duration 
1h 23mn
Bit rate mode 
Constant
Bit rate 
192 Kbps
Channel count 
2 channels
Channel positions 
FrontL R
Sampling rate 
48.0 KHz
Bit depth 
16 bits
Compression mode 
Lossy
Stream size 
114 MiB (6%)
Language Turkish
Default : Yes
Forced 
No
Menu
00
:00:00.000 en:(01)00:00:00:000
00
:06:01.000 en:(02)00:06:01:000
00
:12:06.000 en:(03)00:12:06:000
00
:19:00.000 en:(04)00:19:00:000
00
:25:06.000 en:(05)00:25:06:000
00
:31:49.000 en:(06)00:31:49:000
00
:36:33.000 en:(07)00:36:33:000
00
:44:29.000 en:(08)00:44:29:000
00
:53:39.000 en:(09)00:53:39:000
01
:02:08.000 en:(10)01:02:08:000
01
:11:37.000 en:(11)01:11:37:000
01
:22:09.000 en:(12)01:22:09:000


Ebru Salli Ile Pilates (BoxSet)

Genişletmek için Tıkla!
25-03-2014 13:33 , ApolloNet Tarafından Yüklendi.
Kaynaklar: 1 / İndirilen: 0 / Boyut: 4.48 GB / Tamamlandı: 6
Torrenti İndir  Torrenti Şikayet Et Torrent Tanımı
Tür: Aksiyon | Macera
Kategori: Dizi > BoXSet


Ebru Şallı ile Pilates 1-2-3-4-5-6 (DVDRip XviD) Boxset




plates





Ebru Şallı ile Pilates | Boxset 2008-2009-2010-2011-2012-2013 | DVDRip XviD

p1 p3

Oz.Hakiki.Karakol.2012.DVD5.iso

Genişletmek için Tıkla!
25-03-2014 13:07 , ApolloNet Tarafından Yüklendi.
Kaynaklar: 1 / İndirilen: 0 / Boyut: 4 GB / Tamamlandı: 4
Torrenti İndir  Torrenti Şikayet Et Torrent Tanımı
Tür: Komedi
Kategori: V.I.P


















Alıntı:
Cezaevinden çıkan Hasan, mahallesindeki arkadaşları toplayıp büyük bir otelin gizli kumarhanesini soymayı planlar. Eski dolandırıcılardan Kuzey Baba'yı da ekibe katar.Plana göre otelin yakınındaki kasabada sahte bir karakol kurarlar ancak bir anda kendilerini kasabanın her derdine koşan birer polis olarak bulurlar...


Director: Ibrahim Güler
Writers: Erdal Bektas | Ibrahim Güler
Genres: Comedy
Release Date: 18 May 2012 (Turkey)
User Rating: 7.4/10 7.4/10 (58 votes)
Language: Turkish
Country: Turkey
Runtime: 85 min
Storyline:
IMDB Link: http://www.imdb.com/title/tt2145258



Karadayi.64.Bolum.HDTV.1080i.h264-TTR.ts

Genişletmek için Tıkla!
24-03-2014 23:31 , TrackerTurK Tarafından Yüklendi.
Kaynaklar: 0 / İndirilen: 0 / Boyut: 8.15 GB / Tamamlandı: 6
Torrenti İndir  Torrenti Şikayet Et Torrent Tanımı
Kategori: V.I.P
Anonim Yükleyici

Pes.Pese.2010.DvD5.iso

Genişletmek için Tıkla!
24-03-2014 22:16 , ApolloNet Tarafından Yüklendi.
Kaynaklar: 2 / İndirilen: 0 / Boyut: 4.35 GB / Tamamlandı: 4
Torrenti İndir  Torrenti Şikayet Et Torrent Tanımı Tanıtım Videosu
IMDB Puanı: 5.9 5.9/10 Tür: Drama
Kategori: V.I.P
http://www.imdb.com/title/tt1673654/





Pelin (Azra Akın), Londra’da düğün fotoğrafçılığı yapmaktadır. Son derece özgür bir ruhu olan Pelin, sorumluluk almakta ve bağlılık göstermekte sorun yaşamaktadır. Hayatı boyunca canını sıkan ve hoşuna gitmeyen her durumdan kaçmayı seçmiştir. Eski bir arkadaşının düğününün fotoğraflarını çekmek için İstanbul’ a gelir...Kaan (Okan Yalabık), İstanbul’da yaşayan, evlenmek üzere olan genç bir adamdır. Fazlasıyla kafasının içinde yaşayan Kaan, hayatın doğal akışı içinde saklı olan duygu ve anlamları kaçırmaktadır.Pelin ve Kaan, haberleri olmadan birbirlerinin hayatlarını etkileyeceklerdir.

ARMA 3 Complete Campaign Edition-RELOADED.iso

Genişletmek için Tıkla!
24-03-2014 21:56 , ApolloNet Tarafından Yüklendi.
Kaynaklar: 0 / İndirilen: 0 / Boyut: 9.96 GB / Tamamlandı: 4
Torrenti İndir  Torrenti Şikayet Et Torrent Tanımı
Tür: Aksiyon
Kategori: Oyun > PC



ARMA 3 *Complete Campaign Edition* (c) Bohemia Interactive PROTECTION .......: Steam 1 :.......... DISC(S) .. GAME.TYPE ........: Action Note: This release includes the complete "The East Wind" campaign with episodes: * Survive * Adapt * Win Also includes the v1.14 update. Experience true combat gameplay in a massive military sandbox. Deploying a wide variety of single- and multiplayer content, over 20 vehicles and 40 weapons, and limitless opportunities for content creation, the PC s premier military game series is back. Authentic, diverse, open - Arma 3 sends you to war. Take to the skies and continue the storyline beyond the film with Dusty and other characters from the film, including Ishani, voiced by actress Priyanka Chopra; Echo, voiced by actor Anthony Edwards; and Bravo, voiced by actor Val Kilmer, as they embark on global missions, air races and grand adventures around the world. Key Features *Altis & Stratis Defeat your enemy on richly detailed battlefields stretching over 290 km of Mediterranean island terrain. *Solo & Multiplayer Experience military gameplay by completing the singleplayer showcase missions. Run through the competitive firing drills to hone your shooting and movement skills. Form a squad and team up to fight against your enemy in multiplayer scenarios. *Weapons & Vehicles Master air, land, and sea with 20+ vehicles; choose your gear, pick from 40+ weapons, and customize your loadout. *Content Creation Start creating your own experiences with the powerful scenario editor; develop mods for others to play; share and discover scenarios on Steam Workshop; join our creative community. *Revamped Engine Navigate the battlefield with fluid new animations; feel the devastating power of combat with the upgraded sound engine, new ragdoll simulation and PhysX-supported vehicles. *Campaign Inbound Supplied as free DLC after release, the official campaign will be deployed in 3 gameplay-driven episodes: Survive, Adapt, Win. 1. Unrar 2. Burn or mount the image. 3. Install the game. 4. Copy over the cracked content from the /Crack directory on the image to your game install directory. 5. Play the game. 6. If you like this game, BUY IT!

Was einst 2001 mit dem erfolgreichen Arma: Cold War Assault (der Originaltitel lautet Operation Flashpoint*: Cold War Crisis) begann, wird nun durch Arma 3, dem neuesten Teil von Bohemia Interactives preisgekrönter taktischer Militär-Shooter-Reihe für PC, fortgeführt. Vor dem Hintergrund eines riesigen, 290 km² großen Schauplatzes im Mittelmeerraum bietet Arma 3 mit über 40 Waffen und mehr als 20 Fahrzeugen ein authentisches, vielfältiges und offenes Kriegserlebnis.
  • Größe: 9960 MB
  • Genre: Action
  • FSK: Ab 16 Jahren
  • Vorschau: Trailer
  • Info: NFO
  • Sprachen: Englisch
  • Untertitel: Deutsch Englisch Franzoesisch Italienisch Spanisch
Buyuk.Oyun.2009.720p.DvdRip.Upscale.TTR.mkv

Genişletmek için Tıkla!
24-03-2014 17:22 , ByboomerangRIP Tarafından Yüklendi.
Kaynaklar: 2 / İndirilen: 0 / Boyut: 2.5 GB / Tamamlandı: 34
Torrenti İndir  Torrenti Şikayet Et Torrent Tanımı Tanıtım Videosu
IMDB Puanı: 5.5 5.5/10 Tür: Drama
Kategori: Türk Filmleri > DvD-Rip
http://www.imdb.com/title/tt1363362/



Filmin Özeti

Büyük Oyun, başına gelen talihsiz olaylar neticesinde yolu köktendinci militanlarla kesişen zavallı Cennet'in dramını konu ediniyor. ABD'nin Irak'ı işgal sürecinde direnişçileri yakalamak için sıklıkla yaptığı operasyonlardan birinde bir katliam yaşanmıştır. ABD'li askerler, köyde bütün ailesini feci şekilde öldürmüştür. Tek sağ kalan Cennet, artık hayatta bir başınadır. Yaşamı boyunca köyünün dışına adım atmamış bu genç kız çaresizliğin dayattığıi cesaretle Kerkük’te berber olarak çalışan ağabeyi Azim’i bulmak için yola çıkar. Ama Kerkük’e vardığında ağabeyinin de bir patlamada yaralandığını ve Türkiye’deki bir hastaneye götürüldüğü öğrenir. Ağabeyine ulaşmak için Türkiye'ye gitmeye karar veren Cennet yaşadığı ağır travmanın ve kaybedecek birşeyi kalmamasının yarattığı kayıtsızlıkla çıktığı zorlu yolculukta güç bulduğu tek dayanağı öfkesidir. Terör ve şiddetin hakimiyetinde olan dağlık Irak-Türkiye sınırını kaçakçı grubu ile geçmeyi deneyen Cennet tecavüze uğrar ve intiharı dener. İslamcı bir örgütün elemanları tarafından kurtarılan genç kız bu kişilerle birlikte geçtiği Türkiye'de ağabeyini bulma ümitlerinin tükendiği noktada farklı ve geri dönüşü olmayan bir yola girecektir...



























Genişlet PHP:

General
Unique ID 
245242808843484785982175689214119191796 (0xB8800C02EE72D15DA3A2CC3EECA924F4)
Complete name C:\Users\boom\Desktop\Torrentler\Buyuk.Oyun.2009.720p.DvdRip.Upscale.TTR.mkv
Format 
Matroska
Format version 
Version 4 Version 2
File size 
2.50 GiB
Duration 
1h 52mn
Overall bit rate mode 
Variable
Overall bit rate 
3 193 Kbps
Movie name 
BUYUK OYUN TTR_
Encoded date 
UTC 2014-03-24 14:27:19
Writing application 
mkvmerge v6.0.0 ('Coming Up For Air'built on Jan 20 2013 12:38:35
Writing library 
libebml v1.3.0 libmatroska v1.4.0
Video
ID 
1
Format 
AVC
Format
/Info Advanced Video Codec
Format profile 
High@L4.0
Format settings
CABAC Yes
Format settings
ReFrames 3 frames
Codec ID 
V_MPEG4/ISO/AVC
Duration 
1h 52mn
Bit rate mode 
Variable
Bit rate 
3 000 Kbps
Maximum bit rate 
25.0 Mbps
Width 
1 280 pixels
Height 
692 pixels
Display aspect ratio 
1.85:1
Frame rate mode 
Constant
Frame rate 
25.000 fps
Color space 
YUV
Chroma subsampling 
4:2:0
Bit depth 
8 bits
Scan type 
Progressive
Bits
/(Pixel*Frame) : 0.135
Stream size 
2.30 GiB (92%)
Writing library x264 core 129 r2245 bc13772
Encoding settings 
cabac=ref=deblock=1:0:analyse=0x3:0x113 me=hex subme=psy=psy_rd=1.00:0.00 mixed_ref=me_range=16 chroma_me=trellis=8x8dct=cqm=deadzone=21,11 fast_pskip=chroma_qp_offset=-threads=lookahead_threads=sliced_threads=nr=decimate=interlaced=bluray_compat=constrained_intra=bframes=b_pyramid=b_adapt=b_bias=direct=weightb=open_gop=weightp=keyint=250 keyint_min=25 scenecut=40 intra_refresh=rc_lookahead=40 rc=2pass mbtree=bitrate=3000 ratetol=1.0 qcomp=0.60 qpmin=qpmax=69 qpstep=cplxblur=20.0 qblur=0.5 vbv_maxrate=25000 vbv_bufsize=25000 nal_hrd=vbr ip_ratio=1.40 aq=1:1.00
Default : Yes
Forced 
No
Audio
ID 
2
Format 
AC-3
Format
/Info Audio Coding 3
Mode extension 
CM (complete main)
Format settingsEndianness Big
Codec ID 
A_AC3
Duration 
1h 52mn
Bit rate mode 
Constant
Bit rate 
192 Kbps
Channel count 
2 channels
Channel positions 
FrontL R
Sampling rate 
48.0 KHz
Bit depth 
16 bits
Compression mode 
Lossy
Stream size 
154 MiB (6%)
Language Turkish
Default : Yes
Forced 
No
Menu
00
:00:00.000 en:(01)00:00:00:000
00
:19:36.000 en:(02)00:19:36:000
00
:34:48.000 en:(03)00:34:48:000
00
:51:16.000 en:(04)00:51:16:000
01
:09:10.000 en:(05)01:09:10:000
01
:27:02.000 en:(06)01:27:02:000
01
:50:25.000 en:(07)01:50:25:000



TheWalkingDead-S03 PAKET WEB-DL720 ve 1080 uyumlu.rar

Genişletmek için Tıkla!
24-03-2014 13:19 , TrackerTurK Tarafından Yüklendi.
Kaynaklar: 0 / İndirilen: 0 / Boyut: 173.73 KB / Tamamlandı: 2
Torrenti İndir  Torrenti Şikayet Et Torrent Tanımı Tanıtım Videosu
IMDB Puanı: 8.7 8.7/10 Tür: Gerilim | Korku
Kategori: Film > Altyazı
Anonim Yükleyicihttp://www.imdb.com/title/tt1520211/

3. sezonun başlangıcında grubun çiftlikten kaçması üzerinden aylar geçmiştir ve Lori'nin hamileliğinde son günlerdir. Grup daha sıkı ve disipli bir hâle gelmiştir. Aylaklarla dolu bir hapishaneyi temizleyerek orada kalmaya başlarlar. Malzeme ararken Hershel bir aylak tarafından ısırılır ve Rick, Hershel'ın bacağını kesmek zorunda kalır. Hemen ardında hapishanede kalan bir grup mahkûmla karşılaşırlar. Yemek karşılığı Rick ile grubu, mahkûmların olduğu hücreyi aylaklardan temizlerler. Bir aylak saldırısıyla grup ayrılır. T-Dog, mücadele ederken ısırılır ve Carol'ın kaçması için T-Dog kendini feda eder. Fakat Carol, sonrasında ortadan kaybolur. Lori doğum sancısı çeker ve Maggie, mecburen sezaryen yaparak bebeği kurtarır fakat Lori ölür. Carl, silah çekerek annesini öldürmek zorunda kalır. Üzücü birkaç gün sonra Carol, Daryl tarafından bulunur. Carl ile Rick, bebeğe Judith adını verir.


Ahmet Kaya - Bir Eksiğiz (2014)

Genişletmek için Tıkla!
24-03-2014 12:43 , Tebessum Tarafından Yüklendi.
Kaynaklar: 3 / İndirilen: 0 / Boyut: 140.14 MB / Tamamlandı: 46
Torrenti İndir  Torrenti Şikayet Et Torrent Tanımı
Kategori: Müzik > Mp3

[​IMG]

[​IMG]

CD 1

Aylin Aslım: İçimde Ölen Biri
Söz & Müzik: Ahmet Kaya
Aynur: Kaçakçı Kurban
Söz: Yusuf Hayaloğlu Müzik: Ahmet Kaya
Bajar (Vedat Yıldırım): Cinayet Saati
Söz: Attila İlhan Müzik Ahmet Kaya
Bülent Ortaçgil: Mahur
Söz: Attila İlhan Müzik: Ahmet Kaya
Büyük Ev Ablukada: Katlime Ferman
Söz: Enver Gökçe Müzik Ahmet Kaya
Cem Adrian: Yakamoz
Söz & Müzik: Ahmet Kaya
Gece Yolcuları: Kendine İyi Bak
Söz: Ali Çınar Müzik: Ahmet Kaya
Gripin & Küçük İskender: Ayrılığın Hediyesi
Söz: Yusuf Hayaloğlu Müzik: Ahmet Kaya
Hakan Vreskala: Kum Gibi
Söz & Müzik: Ahmet Kaya
Halil Sezai: Başım Belada
Söz: Yusuf Hayaloğlu Müzik: Ahmet Kaya
Harun Tekin: Beni Vur
Söz: Yusuf Hayaloğlu Müzik: Ahmet Kaya
Hayko Cepkin: Memleket Hasreti
Söz & Müzik: Ahmet Kaya
CD 2

Leman Sam & Ahmet Kaya: Korkarım
Söz: Gülten Kaya Hayaloğlu Müzik: Ahmet Kaya
Mehmet Erdem: Hep Sonradan
Söz: Ali Çınar Müzik: Ahmet Kaya
Moğollar: Metris'in Önünde
Söz & Müzik: Ahmet Kaya
Niyazi Koyuncu & Okan Bayülgen: Doruklara Sevdalandım
Söz: Nihat Behram Müzik: Ahmet Kaya
Redd: Sorgucular
Söz & Müzik: Ahmet Kaya
Sezen Aksu: Ağladıkça
Söz: Gülten Kaya Hayaloğlu Müzik: Ara Dinkjian
Şiir: Birhan Keskin
Teoman: Acılara Tutunmak
Söz: Hasan Hüseyin Korkmazgil Müzik Ahmet Kaya
Yaşar Kurt: Kaçak ve Anne
Söz: Yusuf Hayaloğlu Müzik: Ahmet Kaya
Yavuz Bingöl & Öykü Gürman: Merhaba
Söz: A.Hülya Şensoy Müzik: Ahmet Kaya
Zuhal Olcay: Yalan da Olsa
Söz & Müzik: Ahmet Kaya
Ceza & Ahmet Kaya: Yazıtlar / Gayrı Gider Oldum
Söz: Ceza & Enver Gökçe Müzik: Ahmet Kaya
Sevda Türküleri Box Set (2014)

Genişletmek için Tıkla!
24-03-2014 12:17 , Tebessum Tarafından Yüklendi.
Kaynaklar: 1 / İndirilen: 0 / Boyut: 226.8 MB / Tamamlandı: 24
Torrenti İndir  Torrenti Şikayet Et Torrent Tanımı
Kategori: Müzik > Mp3

[​IMG]

Mustafa Oruç - Sevda Türküleri Box Set CD 1

Mustafa Oruc - Hastane Onunde Incir Agaci
Mustafa Oruc - Cevizin Yapragi
Mustafa Oruc - Iki Keklik
Mustafa Oruc - Leylam (Yazimi Kisa Cevirdi)
Mustafa Oruc - Karahisar Kalesi
Mustafa Oruc - Gokteki Yildizi Fenermi Sandin
Mustafa Oruc - Kucukten Gormedim Ana Kucagi
Mustafa Oruc - Guzel Ne Guzel Olmussun
Mustafa Oruc - Raki Koydum Fincana
Mustafa Oruc - Yoruk Ali (Efelerin Efesi)
Mustafa Oruc - Memberi (Hisardan Inmem Diyor)
Mustafa Oruc - Derbent Deresi
Mustafa Oruc - Felek Beni Tasa Caldi (Hacel Obasi)
Mustafa Oruc - Meseler Guvermis

Yıldız Tezcan - Sevda Türküleri Box Set CD 2

Yıldız Tezcan - Gitme (Perisan Hallerim Askin Elinden)
Yıldız Tezcan - Leyla Leyla
Yıldız Tezcan - Askin Ne Derin Yareler Acti Yuregimde
Yıldız Tezcan - Carsambayi Sel Aldi
Yıldız Tezcan - Bir Dost Bulamadım Gun Aksam Oldu
Yıldız Tezcan - Dam Ustune Cul Serer
Yıldız Tezcan - Erzurum Daglari (Uzun Hava)
Yıldız Tezcan - Ne Elmadir Nede Nar
Yıldız Tezcan - Cevizin Yapragi Dal Arasinda
Yıldız Tezcan - Katip Arzuhalim Yaz Yare Boyle
Yıldız Tezcan - Ruyada Gordum Ana Kucagi
Yıldız Tezcan - Duvar Ustunde Durdum
Yıldız Tezcan - Ali'yi Gordum Ali'yi
Yıldız Tezcan - Bir Of Ceksem Karsiki Daglar Yikilir
Yıldız Tezcan - Aglama Yar Aglama

Mehmet Erenler - Sevda Türküleri Box Set CD 3

Mehmet Erenler - Degmen Benim Gamli Yasli Gonlume
Mehmet Erenler - Bir Of Ceksem Karsiki Daglar Yikilir
Mehmet Erenler - Hem Okudum Hem Yazdim
Mehmet Erenler - Sari Gelin
Mehmet Erenler - Denizin Dibinde Hatcem
Mehmet Erenler - Hasta Dustum (Uzun Hava)
Mehmet Erenler - Bir Cift Turna Gordum
Mehmet Erenler - Gun Aksam Oldu
Mehmet Erenler - Cokertme
Mehmet Erenler - Gonlum Ataslara Yandi
24.Hafta Galatasaray 6-1 Akhisar Belediyespor TTR

Genişletmek için Tıkla!
24-03-2014 11:44 , mertiytemur Tarafından Yüklendi.
Kaynaklar: 0 / İndirilen: 0 / Boyut: 1.41 GB / Tamamlandı: 0
Torrenti İndir  Torrenti Şikayet Et Torrent Tanımı
Kategori: V.I.P

24.Hafta Galatasaray 6-1 Akhisar Belediyespor
Bizim.Buyuk.Caresizligimiz.2011.1080p.HDTV.TTR.mkv

Genişletmek için Tıkla!
24-03-2014 09:39 , ByboomerangRIP Tarafından Yüklendi.
Kaynaklar: 2 / İndirilen: 0 / Boyut: 2.75 GB / Tamamlandı: 27
Torrenti İndir  Torrenti Şikayet Et Torrent Tanımı Tanıtım Videosu
IMDB Puanı: 6.9 6.9/10 Tür: Drama | Komedi
Kategori: Türk Filmleri > HDTV
http://www.imdb.com/title/tt1309178/



Filmin Özeti

Film, geçmişe dayalı dostlukları olan otuzlu yaşlardaki Ender ve Çetin’in yaşamlarından bir kesiti konu alıyor. Çetin, yıllar sonra Ankara’ya dönmüş ve Çetin'le bir ev tutarak tekrar bir araya gelmiştir. Bu sırada yakın arkadaşları Fikret de Almanya’dan Türkiye’ye tatile gelmiştir. Bu tatilde bir trafik kazasında anne ve babasını kaybeden Fikret'in yeniden Almanya’ya dönmesi gerekir fakat ortada bir sorun vardır: artık yalnız kalan kız kardeşi Nihal.

Nihal, Ankara Üniversitesi’nde öğrencidir ve okulunun bitmesine iki yıl vardır. Fikret’in Nihal’i emanet edebileceği kişi ise Ender ve Çetin’dir. Fikret, Nihal’i arkadaşlarına emanet eder ve Almanya’ya geri döner. Artık evde üç kişi yaşıyordur. Nihal anne ve babasını kaybetmiş olmanın yarattığı travmayı yaşarken Ender ve Çetin’le iletişim kurmak istemez. Fakat zamanla bu üç kişi arasında mecburiyetin de etkisiyle ismi konulamayan farklı bir yakınlaşma doğar…













Genişlet PHP:

General
Unique ID 
195480523213364207291549401786954620629 (0x93102DE7EC38F367BCB00D48AC711ED5)
Complete name C:\Users\boom\Desktop\Torrentler\Bizim.Buyuk.Caresizligimiz.2011.1080p.HDTV.TTR.mkv
Format 
Matroska
Format version 
Version 4 Version 2
File size 
2.75 GiB
Duration 
1h 33mn
Overall bit rate mode 
Variable
Overall bit rate 
4 193 Kbps
Movie name 
Bizim Buyuk Caresizligimiz 1080p TTR
Encoded date 
UTC 2014-03-24 00:27:15
Writing application 
mkvmerge v6.0.0 ('Coming Up For Air'built on Jan 20 2013 12:38:35
Writing library 
libebml v1.3.0 libmatroska v1.4.0
Video
ID 
1
Format 
AVC
Format
/Info Advanced Video Codec
Format profile 
High@L4.0
Format settings
CABAC Yes
Format settings
ReFrames 3 frames
Codec ID 
V_MPEG4/ISO/AVC
Duration 
1h 33mn
Bit rate mode 
Variable
Bit rate 
4 000 Kbps
Maximum bit rate 
25.0 Mbps
Width 
1 920 pixels
Height 
800 pixels
Display aspect ratio 
2.40:1
Frame rate mode 
Constant
Frame rate 
25.000 fps
Color space 
YUV
Chroma subsampling 
4:2:0
Bit depth 
8 bits
Scan type 
Progressive
Bits
/(Pixel*Frame) : 0.104
Stream size 
2.57 GiB (93%)
Writing library x264 core 129 r2245 bc13772
Encoding settings 
cabac=ref=deblock=1:0:analyse=0x3:0x113 me=hex subme=psy=psy_rd=1.00:0.00 mixed_ref=me_range=16 chroma_me=trellis=8x8dct=cqm=deadzone=21,11 fast_pskip=chroma_qp_offset=-threads=lookahead_threads=sliced_threads=nr=decimate=interlaced=bluray_compat=constrained_intra=bframes=b_pyramid=b_adapt=b_bias=direct=weightb=open_gop=weightp=keyint=250 keyint_min=25 scenecut=40 intra_refresh=rc_lookahead=40 rc=2pass mbtree=bitrate=4000 ratetol=1.0 qcomp=0.60 qpmin=qpmax=69 qpstep=cplxblur=20.0 qblur=0.5 vbv_maxrate=25000 vbv_bufsize=25000 nal_hrd=vbr ip_ratio=1.40 aq=1:1.00
Default : Yes
Forced 
No
Audio
ID 
2
Format 
AC-3
Format
/Info Audio Coding 3
Mode extension 
CM (complete main)
Format settingsEndianness Big
Codec ID 
A_AC3
Duration 
1h 33mn
Bit rate mode 
Constant
Bit rate 
192 Kbps
Channel count 
2 channels
Channel positions 
FrontL R
Sampling rate 
48.0 KHz
Bit depth 
16 bits
Compression mode 
Lossy
Stream size 
129 MiB (5%)
Language Turkish
Default : Yes
Forced 
No


Doksanlar Bolum 39.720P.X264 .AC3 HDTV-Rip TTR.mkv

Genişletmek için Tıkla!
24-03-2014 06:49 , TrackerTurK Tarafından Yüklendi.
Kaynaklar: 2 / İndirilen: 0 / Boyut: 1.98 GB / Tamamlandı: 20
Torrenti İndir  Torrenti Şikayet Et Torrent Tanımı
Tür: Komedi | Tarih
Kategori: Dizi > HDTV Yerli
Anonim Yükleyici





Genişlet PHP:

General
Unique ID 
183146965159480802212159715132701397494 (0x89C8D28B9647590E887A76446DFBD1F6)
Complete name D:\FILMLER\tv kaydi\Doksanlar Bolum 39.720P.X264 .AC3 HDTV-Rip TTR.mkv
Format 
Matroska
Format version 
Version 4 Version 2
File size 
1.98 GiB
Duration 
1h 34mn
Overall bit rate mode 
Variable
Overall bit rate 
2 986 Kbps
Movie name 
Doksanlar Bolum 39 1080I MPA HDTV-Rip TTR
Encoded date 
UTC 2014-03-24 03:06:49
Writing application 
mkvmerge v6.6.0 ('The Edge Of The In Between'built on Dec 1 2013 17:55:00
Writing library 
libebml v1.3.0 libmatroska v1.4.1
Cover 
Cover
Video
ID 
1
Format 
AVC
Format
/Info Advanced Video Codec
Format profile 
High@L4.0
Format settings
CABAC Yes
Format settings
ReFrames 3 frames
Codec ID 
V_MPEG4/ISO/AVC
Duration 
1h 34mn
Bit rate mode 
Variable
Bit rate 
2 760 Kbps
Maximum bit rate 
25.0 Mbps
Width 
1 280 pixels
Height 
720 pixels
Display aspect ratio 
16:9
Frame rate mode 
Constant
Frame rate 
25.000 fps
Color space 
YUV
Chroma subsampling 
4:2:0
Bit depth 
8 bits
Scan type 
Progressive
Bits
/(Pixel*Frame) : 0.120
Stream size 
1.79 GiB (91%)
Writing library x264 core 135 r2345 f0c1c53
Encoding settings 
cabac=ref=deblock=1:0:analyse=0x3:0x113 me=hex subme=psy=psy_rd=1.00:0.00 mixed_ref=me_range=16 chroma_me=trellis=8x8dct=cqm=deadzone=21,11 fast_pskip=chroma_qp_offset=-threads=lookahead_threads=sliced_threads=nr=decimate=interlaced=bluray_compat=constrained_intra=bframes=b_pyramid=b_adapt=b_bias=direct=weightb=open_gop=weightp=keyint=250 keyint_min=25 scenecut=40 intra_refresh=rc_lookahead=40 rc=2pass mbtree=bitrate=2760 ratetol=1.0 qcomp=0.60 qpmin=qpmax=69 qpstep=cplxblur=20.0 qblur=0.5 vbv_maxrate=25000 vbv_bufsize=25000 nal_hrd=vbr ip_ratio=1.40 aq=1:1.00
Default : Yes
Forced 
No
Audio
ID 
2
Format 
AC-3
Format
/Info Audio Coding 3
Mode extension 
CM (complete main)
Format settingsEndianness Big
Codec ID 
A_AC3
Duration 
1h 34mn
Bit rate mode 
Constant
Bit rate 
224 Kbps
Channel count 
2 channels
Channel positions 
FrontL R
Sampling rate 
48.0 KHz
Bit depth 
16 bits
Compression mode 
Lossy
Stream size 
152 MiB (8%)
Language Turkish
Default : Yes
Forced 
No

300.Bir.Imparatorlugun.Yukselisi.2014.TR.WEB-DL.XviD.avi

Genişletmek için Tıkla!
23-03-2014 22:31 , ApolloNet Tarafından Yüklendi.
Kaynaklar: 6 / İndirilen: 0 / Boyut: 1.14 GB / Tamamlandı: 76
Torrenti İndir  Torrenti Şikayet Et Torrent Tanımı Tanıtım Videosu
IMDB Puanı: 7.0 7.0/10 Tür: Macera
Kategori: Film > Web-Rip
http://www.imdb.com/title/tt1253863/


Tr ses'e katkılarından dolayı FreeDoom'a teşekküler...




Tr ses bize aittir. Ses linedır.


Frank Millar’ın son çizgi romanı Xerxes’den uyarlanan ve “300” filminin nefes kesen görsel tarzıyla anlatılan film aksiyonu yeni bir yere, denize götürüyor. Yunan komutan Themistokles savaşın seyrini değiştirecek bir şekilde ordusunu yönlendirerek tüm Yunanistan’ı birleştirmeyi hedefliyor.

“300: Rise of an Empire”da Themistokles ölümlü Tanrı Xerxes’in ve Pers ordusunun kindar komutanı Artemisia’nın liderliğindeki Pers güçleriyle mücadele ediyor..








Mustafa.Hakkinda.Hersey.2004.720p.DvdRip.Upscale.AC3-5.1-TTR.mkv

Genişletmek için Tıkla!
23-03-2014 20:53 , ByboomerangRIP Tarafından Yüklendi.
Kaynaklar: 1 / İndirilen: 0 / Boyut: 3.18 GB / Tamamlandı: 13
Torrenti İndir  Torrenti Şikayet Et Torrent Tanımı Tanıtım Videosu
IMDB Puanı: 7.7 7.7/10 Tür: Aksiyon | Gerilim
Kategori: Türk Filmleri > DvD-Rip
http://www.imdb.com/title/tt0408017/

DVD KALİTESİZ OLDUĞUNDAN BU RİPTEN İSTEDİĞİM VERİMİ ALAMADIĞIMI AÇIKÇA BELİRTEYİM. İNDİRİNCE BANA KIZMAYIN :P



Filmin Özeti

Dışardan bakıldığında Mustafa için hayat sanki toz pembe gözükmektedir. Zira başarılı bir iş yaşamı görülmektedir. Bu yüksek kariyer, mutlu giden bir evlilik hayatıyla taçlanmıştır. Dünyalar tatlısı bir çocuk da adeta aşkının meyvesidir. Dolayısıyla Mustafa çoğu kişinin imrenerek baktığı bir hayata sahiptir. Bu mükemmellik içerisindeki saklı kusurlar karısının geçirdiği bir kaza sonrasında gün yüzüne çıkmaya başlar. Karısı bu trafik kazasında hayatını kaybettiğinde yalnız değildir; yanında Mustafa'nın daha önce hiç görmediği Fikret isimli bir yabancı bulunmaktadır. Nedenlerini öğrenmek isteyen Mustafa, Fikret'i kaçırıp durumu aydınlığa kavuşturmaya çalışır. Issız bir yerde karşı karşıya gelen iki adam Fikret'in dilinden dökülen sözlerle birlikte bir sinir harbinin içerisine girerler. Fikret'in anlattığı gerçekler hem karısının hem de Mustafa'nın yaşamlarındaki sır perdesini ortadan kaldıracaktır.

















Genişlet PHP:

General
Unique ID 
181011892243634246123367041913774632094 (0x882D9F52BCC003C3A5215D6855036C9E)
Complete name C:\Users\boom\Desktop\Torrentler\Mustafa.Hakkinda.Hersey.2004.720p.DvdRip.Upscale.AC3-5.1-TTR.mkv
Format 
Matroska
Format version 
Version 4 Version 2
File size 
3.18 GiB
Duration 
1h 55mn
Overall bit rate mode 
Variable
Overall bit rate 
3 946 Kbps
Movie name 
Mustafa Hakkinda Hersey 2004 TTR
Encoded date 
UTC 2014-03-23 16:36:51
Writing application 
mkvmerge v6.0.0 ('Coming Up For Air'built on Jan 20 2013 12:38:35
Writing library 
libebml v1.3.0 libmatroska v1.4.0
Video
ID 
1
Format 
AVC
Format
/Info Advanced Video Codec
Format profile 
High@L4.0
Format settings
CABAC Yes
Format settings
ReFrames 3 frames
Codec ID 
V_MPEG4/ISO/AVC
Duration 
1h 55mn
Bit rate mode 
Variable
Bit rate 
3 500 Kbps
Maximum bit rate 
25.0 Mbps
Width 
1 280 pixels
Height 
692 pixels
Display aspect ratio 
1.85:1
Frame rate mode 
Constant
Frame rate 
25.000 fps
Color space 
YUV
Chroma subsampling 
4:2:0
Bit depth 
8 bits
Scan type 
Progressive
Bits
/(Pixel*Frame) : 0.158
Stream size 
2.76 GiB (87%)
Writing library x264 core 129 r2245 bc13772
Encoding settings 
cabac=ref=deblock=1:0:analyse=0x3:0x113 me=hex subme=psy=psy_rd=1.00:0.00 mixed_ref=me_range=16 chroma_me=trellis=8x8dct=cqm=deadzone=21,11 fast_pskip=chroma_qp_offset=-threads=lookahead_threads=sliced_threads=nr=decimate=interlaced=bluray_compat=constrained_intra=bframes=b_pyramid=b_adapt=b_bias=direct=weightb=open_gop=weightp=keyint=250 keyint_min=25 scenecut=40 intra_refresh=rc_lookahead=40 rc=2pass mbtree=bitrate=3500 ratetol=1.0 qcomp=0.60 qpmin=qpmax=69 qpstep=cplxblur=20.0 qblur=0.5 vbv_maxrate=25000 vbv_bufsize=25000 nal_hrd=vbr ip_ratio=1.40 aq=1:1.00
Default : Yes
Forced 
No
Audio
ID 
2
Format 
AC-3
Format
/Info Audio Coding 3
Mode extension 
CM (complete main)
Format settingsEndianness Big
Codec ID 
A_AC3
Duration 
1h 55mn
Bit rate mode 
Constant
Bit rate 
448 Kbps
Channel count 
6 channels
Channel positions 
FrontL C RSideL RLFE
Sampling rate 
48.0 KHz
Bit depth 
16 bits
Compression mode 
Lossy
Stream size 
370 MiB (11%)
Language Turkish
Default : Yes
Forced 
No
Menu
00
:00:00.000 en:(01)00:00:00:000
00
:04:36.000 en:(02)00:04:36:000
00
:13:52.000 en:(03)00:13:52:000
00
:20:20.000 en:(04)00:20:20:000
00
:27:34.000 en:(05)00:27:34:000
00
:35:16.000 en:(06)00:35:16:000
00
:41:49.000 en:(07)00:41:49:000
00
:46:13.000 en:(08)00:46:13:000
00
:51:22.000 en:(09)00:51:22:000
00
:55:08.000 en:(10)00:55:08:000
01
:05:40.000 en:(11)01:05:40:000
01
:11:07.000 en:(12)01:11:07:000
01
:18:13.000 en:(13)01:18:13:000
01
:25:53.000 en:(14)01:25:53:000
01
:41:15.000 en:(15)01:41:15:000
01
:52:37.000 en:(16)01:52:37:000



Misirin.En.Buyuk.10.Kesfi.DVDRIP.TR.AC3.x264.mkv

Genişletmek için Tıkla!
23-03-2014 19:49 , paradox08 Tarafından Yüklendi.
Kaynaklar: 0 / İndirilen: 0 / Boyut: 698.39 MB / Tamamlandı: 12
Torrenti İndir  Torrenti Şikayet Et Torrent Tanımı
Tür: Belgesel
Kategori: Belgesel






Mısırın 10 Büyük Keşfi Türkçe Dublaj

Discovery Channel, belgesel kanalının hazırladığı mısırda keşfedilmiş en büyük 10 eseri konu alan belgesel...

200 yılı aşkın bir süredir, Mısır dünyanın gördüğü en büyük keşiflerden bazılarına ev sahipliği yapmıştır. Bugün, bilimsel analiz harikaları aracılığıyla, modern arkeoloji bizi bu buluntuların ötesine götürüyor ve onların asırlık gizli sırlarının kilidini açıyor.

Önde gelen bir arkeolog ekibi ile birlikte Mısırın tanınan eski eserler koruyucusu Dr Zahi Hawass destansı savaşlar ve mega inşaattan, din ve büyüye kadar antik Mısır medeniyetinin en önemli on keşfini seçti, keşifler krallar, kraliçeler ve sıradan binlerce insanın egzotik ve karmaşık hayat hikayesini ifşa eder ve onların olağanüstü başarılarını çözer.

Uzmanlarımız, günümüzde modern dünyaya hakim mimari, inançlar ve disiplinlerin çoğunu geliştiren insanları ortaya çıkartmaktadır.



Fatih.Harbiye.BL.28.DVBRip.XviD.OpeD.avi

Genişletmek için Tıkla!
23-03-2014 17:47 , ByboomerangRIP Tarafından Yüklendi.
Kaynaklar: 1 / İndirilen: 0 / Boyut: 934.38 MB / Tamamlandı: 7
Torrenti İndir  Torrenti Şikayet Et Torrent Tanımı
Tür: Drama
Kategori: Dizi > Yerli